<?xml version="1.0" standalone="no"?>
<!DOCTYPE svg PUBLIC "-//W3C//DTD SVG 1.1//EN" "http://www.w3.org/Graphics/SVG/1.1/DTD/svg11.dtd" >
<svg xmlns="http://www.w3.org/2000/svg" xmlns:xlink="http://www.w3.org/1999/xlink" version="1.1">
<metadata></metadata>
<defs>
<font id="amazing_kidsregular" horiz-adv-x="811" >
<font-face units-per-em="2048" ascent="1535" descent="-513" />
<missing-glyph horiz-adv-x="688" />
<glyph horiz-adv-x="0" />
<glyph unicode="&#xd;" horiz-adv-x="688" />
<glyph horiz-adv-x="0" />
<glyph horiz-adv-x="0" />
<glyph unicode=" "  horiz-adv-x="688" />
<glyph unicode="&#x09;" horiz-adv-x="688" />
<glyph unicode="&#xa0;" horiz-adv-x="688" />
<glyph unicode="&#x22;" horiz-adv-x="737" d="M248 2067q52 19 93 -19t44 -101q-3 -71 -29 -132.5t-83 -116.5q-16 -14 -35 -24q-16 -11 -35.5 -20.5t-41.5 -12.5q-33 -5 -71 4.5t-38 50.5q0 22 23 41t49 43.5t45 60t14 90.5q-5 41 9.5 81.5t55.5 54.5zM532 1944q52 19 93 -19t44 -101q-3 -68 -29 -129.5t-83 -116.5 q-16 -16 -35 -27q-16 -11 -35.5 -19t-41.5 -14q-33 -5 -71 6t-38 52q0 22 23 39.5t49 42t45 60t14 90.5q-5 41 9.5 81.5t55.5 54.5z" />
<glyph unicode="$" horiz-adv-x="1799" d="M1849 1920q14 -30 16.5 -82t-27.5 -131q-5 -16 -8 -22q-3 -5 -6 -13.5t-5 -16.5q-5 -14 -11 -25t-11 -24q-44 -71 -101 -60q-25 8 -38 32q-11 27 -10 52t7 38q33 87 42.5 150t9.5 88q0 14 -30 19l-568 -1526q79 -79 158 -160t142 -161.5t102.5 -163.5t39.5 -168 q-5 -90 -41 -175q-30 -71 -101 -148.5t-202 -129.5q-131 -63 -271.5 -71t-263.5 8l-30 -85q-14 -35 -52 -35q-14 0 -19 3q-22 8 -31.5 28.5t-1.5 42.5l25 62q-109 22 -167 41q-35 11 -66 22q-14 5 -32 14q-38 14 -88 41q-19 11 -50.5 32.5t-60 54.5t-49 75.5t-20.5 91.5 q0 38 8 58.5t18 28.5t19.5 8t17.5 -2q76 -52 170.5 -94.5t211.5 -72.5q104 -25 183 -41l281 756q-5 5 -8 6q-79 63 -135 121.5t-94 110.5q-33 41 -57.5 83.5t-43.5 80.5l-14 33q-30 74 -39.5 138t-9.5 118q0 33 1.5 59t3.5 45q3 22 9 38h2q5 30 12 60t16 58 q35 98 89.5 186.5t112 164t113.5 132.5t97 96h3q22 22 30 27q66 57 138 98t105 58q74 38 132.5 55.5t96.5 23.5q14 3 33 5q14 3 34.5 3h41.5l44 117q8 22 28.5 30.5t42.5 -0.5q22 -8 31.5 -27t1.5 -41l-38 -101q22 -8 46 -22q19 -11 45 -34t40 -61zM661 1092q11 46 26 90 t37 88q35 82 87 155q46 71 92.5 130t82.5 97q19 22 34 37l26 26l16 16l6 6q-14 -11 -26.5 -19.5t-25.5 -19.5q-14 -11 -25 -20.5t-22 -19.5q-25 -22 -45 -41.5t-42 -40.5q-41 -44 -76.5 -87.5t-65.5 -90.5q-57 -90 -90 -180q-16 -46 -24.5 -88.5t-13.5 -80.5q0 -5 -1.5 -9.5 t-1.5 -10.5v-19v-35q0 -11 1.5 -19t1.5 -17q0 -11 2 -16v-8v-6q11 -60 30 -101q0 -8 3 -11q0 -3 1.5 -4t1.5 -4l8 -16q5 -5 6.5 -11t7.5 -11q3 -8 8 -14q3 -3 3 -5q-30 87 -39 175q-5 89 17 185zM1384 -287q-16 137 -107.5 242t-247.5 233l-262 -701q142 -19 243 -12.5 t164 20.5q74 16 123 46q46 38 66.5 82t20.5 90zM1551 1906q-82 -30 -194 -101t-237 -210q-16 -19 -33 -39q-14 -16 -31.5 -36.5t-31.5 -42.5q-30 -44 -67 -104t-73.5 -129.5t-64 -140.5t-35.5 -136h-3h3q-5 -63 11 -124.5t49 -120t79 -119t101 -117.5z" />
<glyph unicode="'" horiz-adv-x="436" d="M227 2053q49 19 90 -17.5t43 -99.5q-3 -68 -28.5 -128t-80.5 -115q-19 -14 -35 -25t-34 -19t-40 -11q-33 -5 -70 4.5t-37 47.5q0 22 23.5 40t48 42.5t43.5 58.5t14 89q-5 38 10 78.5t53 54.5z" />
<glyph unicode="*" horiz-adv-x="483" d="M377 2040q19 0 30 -11q25 -19 5 -68q-8 -14 -20 -27.5t-32 -19.5q5 -11 9 -13q8 -19 5 -33t-12.5 -25t-39.5 -16q-46 -8 -79 30l-3 5l-24 -32q-14 -14 -28 -17q-30 -11 -57 33q-19 30 -11 63q-33 0 -45 11t-15 24q-3 14 8 36t41 52q0 3 3 2l5 3q-19 30 -16 46.5t14 24.5 q11 11 32 14q22 3 66 -6l5 -2q3 -3 7 -4.5t10 -6.5q0 -3 3 -6q8 8 10 14q19 30 35.5 34t30.5 -1q14 -8 25 -25q5 -14 10.5 -27.5t10.5 -35.5v-5q0 -3 -1 -4.5t-1 -6.5h19v0z" />
<glyph unicode="+" horiz-adv-x="786" d="M661 699q27 -5 44 -19q14 -14 20.5 -37t-10.5 -64q-14 -30 -39.5 -50.5t-63.5 -26.5q-68 3 -134 0q-16 -41 -35.5 -86t-43.5 -94q-14 -25 -33 -35q-16 -8 -41 -5.5t-57 35.5q-22 22 -33 54.5t0 70.5q5 14 12 27.5t12 27.5h-95q-55 0 -75.5 16.5t-22.5 38.5q-3 25 10 54 q11 19 25 38.5t36 40.5q3 5 10 9q16 5 30 8q22 0 62 1.5t97 3.5q14 35 27.5 72t29.5 81q19 49 42.5 63t45.5 8q25 -5 46 -30q27 -30 52 -85q3 -5 3 -13q0 -19 -3 -30q-5 -14 -10.5 -30.5t-14.5 -37.5q27 0 53.5 -1.5t53.5 -4.5z" />
<glyph unicode="," horiz-adv-x="445" d="M232 76q46 19 87 -19t44 -98q0 -134 -109 -240q-19 -14 -36 -25q-16 -11 -33.5 -20.5t-39.5 -12.5q-33 -5 -70 4.5t-34 50.5q0 22 22 39.5t46.5 42.5t43.5 59t14 88q-5 38 9.5 77.5t55.5 53.5z" />
<glyph unicode="-" horiz-adv-x="955" d="M797 579q-14 -30 -39.5 -50.5t-63.5 -26.5q-101 3 -199.5 -1t-246.5 -4q-55 0 -75 16.5t-23 38.5q-3 25 11 54q19 41 60 79q5 5 11 9q8 5 27 8q46 3 170.5 7t315.5 -10q27 -5 44 -19q14 -14 20.5 -37t-12.5 -64z" />
<glyph unicode="." horiz-adv-x="420" d="M330 -16q5 -41 -23 -83.5t-91 -47.5q-30 -5 -58 5q-22 5 -42 24.5t-23 57.5q-5 35 8.5 62.5t34 44t46.5 23t47 4.5q90 -14 101 -90z" />
<glyph unicode="/" horiz-adv-x="1744" d="M1562 2059q44 -8 74 -30q22 -19 31.5 -50.5t-29.5 -86.5q-5 -8 -13 -16q-5 -5 -12 -13.5t-13 -13.5q-8 -8 -66.5 -99.5t-151.5 -273.5t-214.5 -453.5t-252.5 -640.5q-55 -167 -141 -353.5t-171 -347.5q-98 -188 -207 -375q-22 -35 -52 -60q-27 -22 -66.5 -37t-91.5 -4 q-46 8 -77 30q-25 19 -31.5 50.5t31.5 86.5q5 8 14 16q5 5 12 13.5t12 14.5q8 8 56 68t128.5 200.5t191.5 381t242 608.5q115 325 220 564t186 400q96 188 181 320q22 35 52 60q27 22 65 35.5t93 5.5zM1303 1709q3 3 2.5 6t2.5 5q0 3 3 3q-19 -30 -35.5 -57.5t-33.5 -57.5 q-5 -8 -7.5 -14.5t-8.5 -15.5q-5 -8 -16 -30q-8 -14 -15 -28.5t-15 -28.5q-63 -115 -115 -229q-52 -115 -98.5 -224.5t-84.5 -215.5q-8 -27 -17.5 -52t-20.5 -52q-8 -25 -18 -50.5t-18 -50.5t-17.5 -49.5t-17.5 -45.5q-16 -52 -36 -96q-33 -90 -65.5 -173.5t-65.5 -159.5 q-30 -76 -60 -143t-60 -125q-5 -14 -13.5 -27.5t-13.5 -26.5q-5 -14 -12 -26.5t-13 -23.5q-5 -5 -6.5 -12t-6.5 -12q-3 -5 -6 -10.5t-5 -11.5q-14 -25 -25 -41q-22 -38 -38.5 -68t-29.5 -49l-25 -41q109 142 216 327q25 44 48 90.5t45 92.5q5 11 12 22t12 25t11 23.5 t11 22.5q5 14 9.5 25t9.5 24l11 22q3 5 5.5 12t5.5 13q41 96 78 194t72 194q8 22 16.5 46.5t16.5 48.5q8 22 16.5 45t16.5 48q5 11 8 22t8 24q5 11 8 22t9 22q5 14 8 23.5t8 20.5q5 14 8 23.5t8 22.5q30 87 61.5 168t61.5 152t57.5 133.5t51.5 117.5q25 52 45.5 93t34.5 71 q8 14 12.5 24.5t9.5 18.5z" />
<glyph unicode="0" horiz-adv-x="2209" d="M1901 2034q79 -30 133.5 -90t90 -137.5t53 -169t26.5 -182.5q16 -213 -14 -464q-57 -380 -155.5 -652.5t-214.5 -462.5t-236 -306t-221 -182l-23 -16q-24 -16 -66 -36.5t-103.5 -44t-138.5 -36.5q-63 -14 -131 -17t-142 6q-238 25 -386.5 106.5t-233 201.5t-112 265 t-22.5 292q14 347 189 770q87 197 187 350t202 271.5t204.5 206t192.5 147.5q14 8 34.5 16.5t41 12.5t41 0t36.5 -23q16 -22 17 -44q93 76 194 129.5t199 82t190 31t168 -24.5zM164 614q-76 -262 -88 -497q-5 -101 6 -204.5t46.5 -199t98 -177.5t163.5 -137 q-134 109 -204 284q-30 74 -50.5 172.5t-19.5 220t28.5 267.5t93.5 321q87 232 216.5 434t252.5 352q142 175 295 319q-172 -131 -330 -305q-68 -74 -139.5 -165.5t-138 -198t-126.5 -229.5t-104 -257zM1059 -590q90 30 171 90t152 138t129.5 168t107.5 178q112 208 197 450 q126 393 173.5 667.5t40.5 449.5t-50.5 262.5t-95.5 106.5q-38 14 -118.5 5.5t-180.5 -47t-207.5 -108t-200.5 -178.5q-55 -66 -94.5 -128.5t-74.5 -117.5q-5 -8 -20.5 -36.5t-40 -57.5t-56 -45t-69.5 -3q-27 11 -39.5 29t-15 37t0 38t8.5 33q-104 -131 -189 -263.5 t-139 -258.5q-158 -363 -191 -629t25.5 -442.5t194 -265t312.5 -99.5q147 -8 270 27zM2146 1185q5 76 4 142t-4 112q-3 8 -2 22q0 14 -3 19q0 25 -3 33t-3 19v8v-14v-13v-28v-27q-3 -8 -2 -27v-14v-13q0 -5 -1.5 -12.5t-1.5 -12.5v-27q-3 -8 -3 -25q0 -14 -1.5 -24.5 t-1.5 -24.5q-3 -8 -2 -25q0 -5 -1.5 -12t-1.5 -12q0 -14 -1.5 -25t-1.5 -22q-3 -14 -4 -24.5t-1 -21.5q-11 -90 -20.5 -169.5t-23.5 -144.5q-3 -16 -4 -32.5t-4 -30.5q-3 -5 -3 -14q0 -5 -1.5 -7.5t-1.5 -5.5q-3 -8 -2.5 -15t-2.5 -12q-3 -14 -4 -25t-4 -22q0 -8 -3 -11v-11 q-3 -5 -3 -9t-2 -10q-5 -19 -7 -31.5t-4 -22.5q-3 -11 -3 -20q8 19 15 37t12 37q3 11 5.5 19t5.5 19q5 14 11 41q5 8 6.5 18t7.5 21q0 5 1 10.5t1 10.5q5 11 6 20q3 11 5.5 20.5t5.5 19.5l3 22l5 22q16 85 24.5 167t13.5 158z" />
<glyph unicode="1" horiz-adv-x="936" d="M1035 2059q46 -8 74 -30q22 -19 30 -50.5t-30 -86.5q-5 -8 -14 -16q-5 -5 -12 -13.5t-13 -13.5q-8 -8 -55.5 -68.5t-128 -201t-190 -381t-240.5 -608.5q-123 -341 -172 -559.5t-50.5 -347t31.5 -186t78 -80.5t86 -28.5t54 -30.5q22 -38 -6.5 -62.5t-58.5 -38.5 q-22 -5 -42.5 -6.5t-39.5 1.5q-22 3 -44 8q-117 35 -181.5 122.5t-86 210.5t-5.5 276t56 321t100 344t128 348q98 248 191 442t164 334q-85 -60 -165.5 -75.5t-167.5 44.5q-16 14 -30 31q-14 14 -27.5 30t-19.5 38q-11 30 -8 68t47 44q22 3 43.5 -13.5t50.5 -37t67 -33 t91.5 1t125.5 63t168 153.5q8 11 26 30t43.5 34t58.5 23t74 0zM808 1581q3 3 3 5.5t3 5.5q0 3 2 3q-30 -46 -58.5 -91.5t-55.5 -91.5t-52 -91.5t-49 -91.5q-46 -90 -87.5 -176t-76.5 -171q-38 -85 -68 -165.5t-58 -153.5q-25 -76 -45 -147.5t-37 -134.5 q-35 -131 -51.5 -234.5t-24.5 -174.5q0 -19 -1.5 -34t-4.5 -29q0 -35 -2 -47v-38q11 74 26 152t34 157t41 159.5t46 159.5q52 164 109.5 317t114.5 292t112 255.5t96 200.5q22 41 38 74t30 57q11 19 16 33z" />
<glyph unicode="2" horiz-adv-x="1529" d="M1155 -131q30 30 63 11t52 -47q14 -16 18 -36.5t9 -39.5l6 -44q-3 -167 -119 -266.5t-306 -148.5t-431.5 -56t-492.5 10q-71 8 -136.5 32.5t-79.5 98.5q-11 66 6.5 101t39.5 57q96 96 206.5 201t249.5 261q246 276 400.5 479t241.5 343q60 82 108 162.5t83 142.5 q41 74 71 142q46 98 76.5 187t46.5 163t23 132.5t10 99.5q0 19 -14 41t-57 11q-205 -74 -355 -199.5t-246 -248.5q-14 -22 -33 -35q-16 -14 -39.5 -25t-55.5 -5q-33 5 -44 23t-8 39q0 25 13 55q60 137 143.5 242t220.5 184q98 57 177 84.5t142 31.5t109.5 -9.5t79.5 -35.5 q30 -22 47.5 -45t28.5 -45q11 -25 19 -49q27 -115 24.5 -233.5t-25.5 -235t-64 -228.5t-93 -210q-87 -169 -205 -347q-101 -153 -244.5 -333t-323.5 -347q-76 -71 -136.5 -126.5t-115 -106.5t-109 -100t-114.5 -106q352 -19 566.5 -4t334.5 49t163.5 83t52 97t3 89t13.5 60z M956 1933q3 0 2.5 1.5t2.5 1.5h3q-16 -5 -35.5 -10.5t-38.5 -16.5q-41 -19 -71 -41q-38 -25 -68 -52t-57 -55q-49 -55 -77 -98q-5 -11 -10.5 -18t-8.5 -12q-3 -3 -3 -6t-2 -2q-3 -3 -3 -6q8 14 17.5 23.5l17.5 17.5q8 11 18 20.5t18 17.5q16 19 34 35.5t34 30.5 q63 57 120 98q25 19 47 33t38 25q5 3 6.5 4t7.5 4q3 0 8 5zM112 -232q-5 -5 -6 -8q14 14 30.5 27.5t32.5 26.5q8 8 16.5 15t16.5 13l16 16l14 14q16 14 32.5 30t33.5 30l16 16q5 5 8 6.5t8 7.5l33 33l33 32l16 17l17 16q16 16 31 32.5t32 33.5l32 32q8 11 16.5 19.5 t13.5 16.5q8 8 16.5 16t16.5 19l30 33q63 71 121.5 143.5t113.5 146.5q109 150 191 295q87 145 145 273q60 134 90 232q16 49 25.5 88.5t15.5 69.5q0 5 1.5 12t1.5 13q3 8 2 19v11q3 0 3 2q-5 -14 -6.5 -28.5t-7.5 -28.5q-3 -5 -2.5 -8t-2.5 -8q0 -5 -1.5 -7t-1.5 -7 q-3 -5 -2.5 -8t-2.5 -6q0 -5 -1.5 -8t-1.5 -8q-3 -3 -3 -5.5t-2 -8.5q-3 -3 -3 -5.5t-3 -7.5t-4 -13.5t-4 -14.5q-5 -5 -6.5 -13t-4.5 -14q-3 -8 -5.5 -15t-5.5 -12q-22 -55 -45 -107t-50 -101q-25 -49 -51 -95.5t-53 -92.5q-16 -25 -28 -47q-3 -3 -4 -5.5t-4 -5.5 q0 -5 -5 -10t-8 -11t-6 -11q-8 -11 -15 -22t-12 -22q-8 -11 -15 -20.5t-15 -20.5q-55 -85 -109.5 -160t-109.5 -143q-5 -8 -13 -17.5t-14 -18.5q-5 -8 -12 -16t-15 -16l-25 -33l-13 -14q-3 -5 -6 -8t-5 -8q-14 -16 -26.5 -31.5t-25.5 -28.5q-3 -5 -5.5 -8t-5.5 -9 q-3 -3 -4.5 -2.5t-3.5 -2.5q0 -3 -6 -8q-5 -5 -12 -13.5t-12 -14.5q-22 -30 -47 -54q-11 -14 -22 -25t-22 -24l-41 -49q-11 -11 -20.5 -22t-19.5 -22q-38 -44 -71 -78t-61 -64q-11 -11 -13 -17q-5 -3 -6.5 -5.5t-7.5 -4.5q-8 -11 -22 -25q-11 -14 -19 -22l-16 -16z" />
<glyph unicode="3" horiz-adv-x="1709" d="M1589 431q5 -49 6.5 -94t-0.5 -91q-8 -98 -39 -208q-27 -93 -79 -205t-142 -215q-199 -232 -467 -331q-38 -16 -87 -27q-44 -14 -102.5 -25t-132.5 -16h-3q-38 -3 -69.5 0t-77.5 14q-74 16 -131 49q-115 60 -172.5 151.5t-80.5 180t-23 157v82.5q5 147 54.5 264.5 t136.5 223.5q19 25 41 36q19 11 39.5 11t42.5 -28q22 -30 24.5 -54.5t0.5 -43.5q-5 -22 -14 -41q-30 -71 -56 -154t-40 -179q-8 -46 -12 -118.5t8.5 -147.5t45 -136.5t103.5 -80.5q49 -14 102.5 -10t106.5 19t101 37t86 44q52 27 96 57q68 46 139 103.5t142 128.5 q27 30 77.5 97t91.5 166.5t55 229.5t-33 286q-33 112 -117 196q-96 -85 -182 -113.5t-154 -24.5t-113.5 30t-61.5 51q-16 27 -10.5 43.5t18.5 30.5q16 11 44 21q112 16 192.5 73.5t129.5 112.5q38 44 65.5 89t41.5 67q33 60 49 98q11 19 16 35q96 199 124.5 351t31.5 231 q0 19 -13.5 41t-57.5 11q-205 -74 -354 -199.5t-247 -248.5q-11 -22 -30 -35q-16 -14 -40.5 -25t-57.5 -5q-33 5 -44 23t-8 39q3 25 16 55q57 137 142 242t221 184q98 57 177.5 84.5t142.5 31.5t109.5 -9.5t78.5 -35.5q30 -22 46.5 -45t27.5 -45q11 -25 19 -49 q27 -115 26 -233.5t-24.5 -235t-64.5 -228.5t-92 -210l-9 -16q-5 -8 -12 -20.5t-12 -26.5h-3q98 -87 166.5 -203.5t84.5 -263.5zM1059 1933q3 0 3 1.5t3 1.5h3q-41 -8 -74 -27q-38 -16 -74 -41q-71 -49 -123 -107q-27 -27 -46 -51.5t-33 -46.5q-5 -11 -9 -18t-10 -12l-5 -8 v-6q19 27 35 41q8 11 16.5 20.5t16.5 17.5l35.5 35.5t32.5 30.5q63 57 120 98q27 19 49 33t36 25q11 5 14 8q5 0 10 5zM137 169q0 3 1 4.5t1 3.5v3q-14 -22 -24.5 -41t-21.5 -41q-11 -19 -18 -38t-12 -38q-25 -79 -25 -139q0 -14 1.5 -26.5t4.5 -25.5v-11q3 -3 2 -11 q0 -3 1.5 -4.5t1.5 -3.5q0 -3 1.5 -4.5t1.5 -4.5q0 -5 1.5 -6.5t1.5 -6.5q3 -3 2.5 -4.5t2.5 -3.5q0 -3 3 -6v-3q-3 16 -4.5 33t-1.5 36v34t3 37q8 68 30 133q8 33 17.5 59t15.5 45q9 25 14 30zM1526 287q3 25 1.5 48t-1.5 45q-8 76 -21 128q-3 11 -6 19t-5 14q0 3 -1.5 4 t-1.5 4v3q3 -5 3 -12.5t2 -12.5q0 -8 3 -11q0 -8 3 -11q0 -19 5 -46q3 -25 3 -48v-45q-3 -46 -8.5 -90t-13.5 -88q-3 -3 -3 -11q0 -3 -1 -4t-1 -6q-3 -5 -3 -9.5t-3 -10.5q-3 -5 -2.5 -10.5t-2.5 -10.5q0 -3 -1.5 -4.5t-1.5 -6.5q0 -3 -1.5 -4.5t-1.5 -4.5q-3 -5 -4 -10.5 t-4 -10.5v-6l-3 -3q0 -5 -1 -6.5t-1 -3.5q-3 -5 -4.5 -9.5l-3.5 -10.5q-3 -5 -3 -9t-3 -10q-33 -76 -68 -144q-8 -11 -19 -33q-5 -5 -11 -17q-5 -11 -11 -16q-11 -22 -19 -33q-5 -8 -11 -15t-11 -15q-3 -5 -4.5 -6.5t-3.5 -6.5q-5 -5 -7 -8l-4 -6q-5 -8 -11 -15t-11 -15 q-16 -16 -22 -27l-25 -25q0 -5 -5 -5q0 -3 -5 -9q-3 -3 -4.5 -5.5t-6.5 -5.5l-11 -10q-3 -5 -5.5 -7t-5.5 -7q-8 -3 -11 -11q-5 -3 -6.5 -5.5t-7.5 -5.5l-22 -22q-22 -22 -46.5 -39.5t-45.5 -34.5q-22 -16 -45.5 -31t-45.5 -29t-41 -24.5t-40 -21.5q-41 -22 -75.5 -35.5 t-64.5 -27.5q-30 -11 -53 -17.5t-37 -12.5q-8 -3 -13.5 -3t-10.5 -2q-3 0 -6 -3h-3q16 3 33 4t33 7q16 3 32.5 5.5t32.5 7.5q35 11 68 22t69 25q66 27 130 64t124 83q30 25 57.5 49.5t51.5 51.5q55 55 96 112q3 5 5.5 8t5.5 9q3 5 11 13l8 17l5 5q3 3 3 4.5t3 3.5 q5 8 9 16.5t10 13.5l8 17q5 11 8 14q19 30 33 61t27 61q14 30 25 61.5t19 61.5q16 57 25 115q3 5 2.5 13.5t2.5 13.5q0 5 1.5 12t1.5 16q0 16 2 24v25z" />
<glyph unicode="4" horiz-adv-x="1561" d="M1622 1838q-22 -25 -74 -96t-129.5 -215.5t-180 -372.5t-222.5 -564q-3 -8 -5.5 -15t-5.5 -15q128 -98 139 -260q0 -22 -3 -43q-3 -19 -7 -41t-14 -39q-16 -30 -48 -50.5t-64 7.5q-16 14 -16.5 38.5t-3 55.5t-11 65.5t-40.5 66.5q-90 -279 -120.5 -454.5t-23.5 -279.5 t42.5 -150.5t78 -64t79 -24.5t50.5 -29q22 -38 -6.5 -62.5t-58.5 -38.5q-22 -5 -42.5 -6.5t-39.5 1.5q-22 3 -44 8q-139 44 -204.5 157t-74 275.5t31 359t105.5 404.5q-104 19 -263.5 20.5t-394.5 -20.5q-41 -5 -67 3t-42 19q-19 11 -28 27q-19 35 -20 66.5t5.5 56.5t16 41 t12.5 22q79 106 176 230.5t217 263.5q147 169 305.5 331.5t315.5 285.5t309 192.5t283 58.5q22 -5 62.5 -18.5t57.5 -52.5q11 -22 5.5 -61t-38.5 -83zM115 836q-16 -22 -19 -28q-5 -5 -6 -8q117 139 229 262q109 123 213 230q104 109 195.5 200.5t173.5 162.5q5 5 9.5 8 t9.5 8t11 8q5 5 8 11q11 8 20.5 16.5t18.5 13.5q11 8 19 16.5t16 13.5q11 11 19 14q11 11 17 14q8 8 16 15t16 12t30 22q3 3 6 4t8 7q5 3 6.5 4t7.5 4q5 5 12 9.5t12 9.5t12 6.5t13 7.5q8 8 19 13t19 9.5t14 9.5q5 5 10.5 7t11.5 4q5 3 5 6q-112 -49 -227 -128 q-55 -38 -108 -80.5t-107 -89.5q-104 -93 -198.5 -190t-175.5 -189q-82 -93 -149 -173.5t-114 -143.5q-46 -63 -73 -98zM789 -647q-55 44 -84 109q-16 33 -25 68q-14 35 -16 74q-5 38 -8 75t-3 75q3 38 4 72.5t4 69.5q5 68 14.5 125.5t18.5 98.5q5 22 8 37t5 29q0 5 1.5 9 t1.5 10q0 3 3 5q-8 -25 -16.5 -48t-13.5 -47q-5 -22 -11 -45.5t-11 -44.5q-16 -87 -25 -175q-16 -164 14 -290q16 -57 38 -101q5 -11 12 -20.5t13 -17.5q5 -5 11 -16q3 0 8 -6q0 -5 5 -5q22 -22 39 -33q11 -5 10 -5zM863 882q63 156 131 300.5t131 270t117.5 225.5t92.5 165 q-115 -68 -300.5 -236t-409.5 -408q-139 -150 -249.5 -271.5t-198.5 -217.5q172 8 325 0t279 -44q22 55 41 108t41 108z" />
<glyph unicode="5" horiz-adv-x="1728" d="M1843 1663q0 -19 -2.5 -41t-10.5 -41q-14 -30 -42.5 -54.5t-64.5 -0.5q-22 14 -23.5 49.5t-12 76.5t-43.5 80.5t-113.5 63t-224 23.5t-372.5 -36q-49 -71 -127 -209t-179 -370q68 -16 155.5 -45t180.5 -74t184.5 -106t165 -142t125.5 -182t66 -224q5 -49 6.5 -94 t-1.5 -91q-16 -109 -46 -219q-30 -96 -79.5 -205t-133.5 -204q-205 -232 -467 -331q-38 -16 -88 -27q-44 -14 -104 -25t-133 -16q-38 -3 -69.5 0t-78.5 14q-74 16 -131 49q-115 60 -172 151.5t-80.5 180t-23.5 157v82.5q3 147 53.5 264.5t138.5 223.5q19 25 41 36 q19 11 39.5 11t41.5 -28q22 -30 26 -54.5t-1 -43.5q-5 -22 -16 -41q-30 -71 -56 -154t-40 -179q-5 -46 -9.5 -118.5t6.5 -147.5t45.5 -136.5t105.5 -80.5q49 -14 102 -10t105 19t101 37t87 44q52 27 96 57q68 46 139 103.5t142 128.5q27 30 78 97t92 166.5t54.5 229.5 t-33.5 286q-33 106 -108 186.5t-170.5 140.5t-200.5 101t-195 66q-79 25 -113 64.5t-45 77.5t-4.5 72t12.5 48q79 177 148.5 309.5t116.5 220.5q14 22 42.5 53t76 61t114.5 52t160 28q147 11 278 1t233.5 -49.5t168 -109t87.5 -178.5v-44zM55 180q-14 -22 -25 -41t-22 -41 q-22 -38 -30 -76q-25 -79 -24 -139q0 -14 1 -26.5t1 -25.5q3 -3 3 -11q0 -3 1.5 -4.5t1.5 -6.5q0 -3 1.5 -4.5t1.5 -3.5q0 -5 2 -9q0 -5 1.5 -6.5t1.5 -6.5q3 -3 3 -4.5t2 -3.5v-6q0 -3 3 -3q-3 16 -4 33t-1 36v34t2 37q5 35 12.5 69t15.5 64q11 33 19 59t16 45q5 14 11 30z M1354 -22q-30 -74 -73 -142q-3 -5 -6 -8t-5 -8l-3 -3l-3 -5l-5 -6q-5 -8 -11 -16t-11 -17q-5 -5 -10.5 -13t-11.5 -17q-5 -5 -12 -13.5t-12 -13.5q-22 -30 -46.5 -56t-46.5 -48l-14 -13l-11 -11q-5 -5 -12 -11t-12 -11t-12.5 -11t-12.5 -11t-12 -9.5t-13 -9.5 q-46 -44 -95 -71q-22 -16 -45 -30t-45 -27q-22 -14 -44 -23.5t-44 -20.5q-76 -35 -142 -52q-30 -11 -53 -15t-39 -10q-5 0 -8 -1t-6 -1q-8 0 -11 -3h-8q33 0 67 4t67 10q8 3 17.5 4t17.5 4l33 8q19 5 35.5 10.5t32.5 11.5q71 25 135 60t127 79q30 22 59 45t56 48 q30 27 54.5 53t49.5 53q5 11 11 17l5 5l6 8q5 5 10.5 13.5t10.5 14.5l41 57q41 60 69 120q55 117 76 235q11 55 12.5 105.5t1.5 91.5q-3 41 -7 73.5t-10 54.5q-5 27 -8 33q0 5 -1.5 6.5t-1.5 4.5v2q3 -14 4.5 -24.5t1.5 -24.5q3 -11 3 -21.5t2 -24.5v-93q-3 -22 -4 -45 t-7 -45q-3 -41 -16 -87q0 -8 -5 -20q0 -8 -3 -11q0 -3 -1.5 -5.5t-1.5 -4.5q-3 -5 -3 -9.5t-2 -10.5q-3 -5 -4.5 -10.5t-4.5 -10.5q0 -5 -2 -9q0 -5 -1.5 -6.5t-1.5 -4.5q-3 -5 -4 -9t-4 -10q-3 -8 -8 -19q-3 -5 -3.5 -9.5t-5.5 -9.5zM1559 1944q3 0 4.5 -1t3.5 -1h3 q-19 11 -41 19l-44 16q-22 5 -45 9.5t-47 9.5q-46 5 -94 8t-89 -2q-90 -5 -142 -17q-25 -5 -41 -8q-5 -3 -11 -3h-3q30 3 58.5 4.5t58.5 1.5q30 3 56 2.5t54 -0.5q52 0 94 -2.5t80 -7.5q35 -5 66 -9q14 -5 26 -6.5t23 -4.5q5 0 8 -1t9 -1q5 -3 7.5 -3t5.5 -3z" />
<glyph unicode="6" horiz-adv-x="1862" d="M1862 1952q30 -30 55 -73.5t34.5 -106.5t2.5 -144.5t-40 -188.5q-46 -147 -128 -245.5t-199 -177.5q-25 -19 -50 -25q-22 -5 -42 1.5t-31 39.5q-14 33 -10 57.5t12 43.5q11 19 28 36q98 117 184 283.5t108 379.5q3 46 -22 56t-44 7q-76 -16 -215.5 -68t-310 -172 t-350.5 -327.5t-339 -535.5q-19 -38 -32.5 -69.5t-24.5 -59t-23.5 -56t-25.5 -64.5q85 112 179 183t192 108t200.5 42.5t206.5 -13.5q202 -38 346.5 -155.5t183.5 -317.5q3 -14 4 -28.5t4 -31.5q14 -126 -17.5 -273t-119.5 -316q-68 -137 -152.5 -230t-174.5 -151.5 t-180.5 -90t-166.5 -42.5q-38 -5 -79 -8q-35 -3 -79 -3t-82 6q-221 19 -358 99.5t-208 199.5t-88.5 263.5t-4.5 291.5q33 347 224 773q167 347 391 615q93 115 209 221t252.5 185.5t292 123t327.5 29.5q25 -3 55 -10q22 -5 50.5 -20.5t55.5 -40.5zM997 715 q-177 -8 -311 -85.5t-228.5 -196.5t-147.5 -266.5t-64 -297.5q5 -273 145.5 -396t392.5 -117q93 3 194 54q87 46 193.5 151.5t218.5 312.5q74 156 86 310.5t-37 276t-159.5 193.5t-282.5 61zM1327 1909q-14 -3 -41 -14q-3 0 -19 -5l-16 -9q-22 -8 -40 -17.5t-34 -17.5 q-38 -22 -72.5 -42.5t-66.5 -42.5q-66 -46 -126 -95t-115 -104t-102.5 -111t-93.5 -116q-11 -14 -22 -28.5t-22 -28.5q-5 -5 -10.5 -13.5t-11.5 -16.5q-3 -3 -4 -5.5t-7 -8.5q-3 -5 -4 -6.5t-4 -6.5q-11 -14 -20.5 -30.5t-20.5 -29.5q-8 -14 -17.5 -29t-17.5 -29 q-5 -8 -9.5 -15t-9.5 -15t-8 -15t-9 -15q-5 -5 -8 -13.5t-8 -13.5q-11 -22 -17 -30q-5 -8 -8 -15t-8 -15t-16 -30q-8 -14 -15 -29t-15 -29q-5 -14 -13.5 -28.5t-14.5 -28.5q-5 -14 -13.5 -29t-13.5 -28q-14 -30 -25 -57.5t-24 -54.5q-46 -115 -75 -221.5t-48 -204.5 q-19 -101 -23 -191.5t1 -169.5q0 -5 1.5 -9t1.5 -10v-11q3 -3 3 -8q0 -14 2 -19q0 -5 1.5 -9.5t1.5 -9.5v-8q3 -3 3 -9q3 -5 2 -19q3 -5 3 -8t3 -8q0 -5 1.5 -8t1.5 -8q11 -33 20.5 -62t22.5 -53q11 -25 23.5 -45.5t25.5 -36.5q11 -19 22 -31.5t22 -23.5q5 -8 17 -19l5 -5 q5 -5 8 -6q3 -5 6 -8q0 -3 2 -3q-19 22 -36.5 44t-31.5 46q-16 22 -28.5 48t-23.5 54q-22 57 -33 114t-16 120q-5 60 -1 121.5t12 124.5t22 123t30 123q16 60 35.5 120t40.5 117q11 30 22 59t25 56q5 8 6.5 15t6.5 15l6 14l8 13l25 58q11 16 13 27q11 16 14 27q8 14 15 27.5 t12 27.5q8 14 15 26t15 26q3 5 6 12t8 15q5 5 6.5 12t7.5 13q8 14 14.5 26t15.5 26q8 14 15 24.5t15 24.5q11 16 13 24l17 25q8 14 16 24.5t14 21.5q33 49 65 91q11 16 14 21t8 11q3 5 8 11q8 11 16.5 22t16.5 22q33 38 65.5 76.5t65.5 73.5t66 65.5t63 57.5q19 19 30 27 q22 16 30 25l8 8q3 0 8 6q5 3 6.5 5.5t7.5 4.5q5 3 13 11q5 3 8 6t9 5q55 41 102.5 70t82.5 48q27 14 55 24q5 3 8 3t6 3h5zM1901 1589l-17 -49q-5 -14 -9 -24.5t-10 -21.5q-5 -11 -8 -22t-8 -22q-3 -5 -4.5 -9.5t-6.5 -9.5q-3 -8 -8 -19q-19 -38 -37 -71t-34 -60 q-35 -57 -58 -80q-3 -5 -8 -10q-3 -5 -8 -11l-6 -6q14 11 29 23.5t29 25.5q14 14 26 30.5t26 32.5q22 33 39.5 70t31.5 69q14 35 20.5 64t11.5 51q3 14 4.5 22t1.5 14q0 5 1.5 6.5t1.5 4.5v2z" />
<glyph unicode="7" horiz-adv-x="1927" d="M2021 1901q5 -60 -26.5 -104t-66.5 -74q-41 -33 -117.5 -98.5t-192.5 -176t-278.5 -273t-375.5 -386.5q-281 -300 -442.5 -517t-236.5 -373t-84.5 -255.5t11 -163.5t52 -101t36.5 -64q5 -41 -30 -56t-68 -13q-22 0 -42.5 7t-36.5 15q-19 11 -36 22q-98 74 -109 201 t41 285t154.5 335.5t228 356.5t262 345.5t259.5 303.5q259 289 461.5 477.5t305.5 276.5q-322 25 -521.5 9.5t-311.5 -55t-155.5 -93t-55.5 -105t-11 -95.5t-18 -63q-16 -14 -31 -15t-30 7t-29 21.5t-22 27.5q-14 16 -19 36.5t-8 40.5q-3 22 -3 43q8 167 129.5 262.5 t314 138t435.5 41t495 -28.5v-3q25 0 52 -8q22 -5 45 -17.5t42 -34.5q14 -14 22 -33t11 -46zM1617 2002q14 -3 24.5 -3h18.5h14q-14 5 -29 8t-28 6q-5 0 -8 1t-9 1q-5 0 -8 1.5t-5 1.5q-8 0 -16.5 1.5t-16.5 1.5q-5 3 -17 2q-5 0 -8 1.5t-8 1.5q-19 0 -30 3q-22 0 -33 3h-33 q-66 3 -129.5 -1.5t-121.5 -9.5q-117 -14 -191 -30q-19 -5 -32.5 -8t-22.5 -6q-8 -3 -16 -3q-3 0 -5 -2q22 3 42 4t42 4h19q5 0 9.5 1t9.5 1h22q5 0 9.5 1.5t9.5 1.5q19 0 37 1.5t37 1.5q14 3 38 3h17q5 3 19 2q68 3 128 4.5t112 1.5q52 3 92 3h67zM1649 1584q8 8 13.5 15 t11.5 12q5 5 11 8q-41 -33 -82 -65.5t-79 -62.5q-38 -33 -75 -65.5t-75 -65.5q-147 -131 -271 -254q-63 -63 -119 -123t-107 -115q-52 -57 -97 -111.5t-84 -103.5q-41 -52 -75 -97t-64 -86t-52 -76.5t-44 -65.5q-8 -14 -16 -27.5t-14 -24.5q-8 -14 -13.5 -22t-10.5 -16 l-17 -33q44 57 89 117t97 123q49 63 99.5 123t105.5 120q106 123 214 239t209 220t188.5 191t153.5 150q68 66 103 96z" />
<glyph unicode="8" horiz-adv-x="1791" d="M1764 1166q-46 -90 -99.5 -155.5t-112 -112t-118.5 -74t-115 -43.5q112 -63 196.5 -165.5t109.5 -238.5q5 -22 11 -60q14 -126 -17.5 -273.5t-119.5 -316.5q-68 -137 -154 -228.5t-179 -148.5t-183 -87t-167 -41q-41 -3 -84 -6q-38 -3 -83.5 -1.5t-83.5 7.5 q-153 14 -263.5 56t-187 107.5t-123 149t-67.5 178.5q0 5 -1.5 9.5t-1.5 9.5l-3 6q0 11 -3 16q-3 16 -4 34t-1 32q-3 22 -3 73.5t12.5 125.5t44 164t88.5 186q63 104 142 184.5t168 140.5t183 99.5t184 61.5q-79 55 -125.5 129.5t-68.5 162.5q-3 3 -3 14l-2 2v14 q-3 14 -4.5 26t-1.5 26q-3 16 -2.5 58.5t11 100t34 128.5t69.5 147q60 101 142 176t172 124.5t181.5 74t171.5 26.5q38 0 72 -2.5t72 -8.5q161 -30 274.5 -122.5t143.5 -248.5q3 -14 4.5 -24.5t1.5 -24.5q11 -98 -14 -215.5t-93 -251.5zM707 1627q38 66 77 107 q19 22 38 42.5t38 36.5q38 35 71 57t58 36q3 3 5.5 4t4.5 4q3 0 3 1.5t3 1.5l5 3q11 5 14 8t5.5 3t5.5 2q3 0 3 3q-27 -11 -54.5 -23t-57.5 -29q-27 -16 -53 -35t-51 -41t-46.5 -48t-40.5 -51q-22 -27 -37 -53t-29 -53q-27 -55 -42 -101.5t-26 -81.5q-5 -19 -6.5 -32.5 t-4.5 -24.5q0 -5 -1.5 -8t-1.5 -6v-6q5 22 12 41.5t13 38.5q5 22 13.5 39.5t13.5 33.5q8 19 16.5 35.5t16.5 33.5q5 8 9 16t10 16l8 17q3 5 4 6.5t4 6.5zM1537 268v-41q-3 -5 -2 -19v-20q-3 -11 -3 -20.5t-3 -17.5q-14 -79 -33 -147q-11 -35 -21.5 -68t-24.5 -63 q-14 -33 -29 -61.5t-28 -58.5q-60 -106 -131 -192q-35 -41 -69.5 -73.5t-67.5 -59.5q-16 -14 -32.5 -25t-30.5 -22q-5 -3 -6.5 -4t-6.5 -4q-11 -5 -14 -8q-11 -5 -27 -17q-25 -14 -45.5 -24.5t-34.5 -16.5q-19 -5 -21 -8q-3 -3 -6 -3h-3q57 11 121 39q16 8 31 15t29 15 t28.5 16t28.5 19q8 5 15 9.5t12 9.5q5 3 14 11q11 5 14 11q11 5 13 11l8 6l6 5l14 11q5 3 6.5 5.5t6.5 5.5q49 49 96 104q44 55 78 116t64 124q14 30 24.5 61.5l21.5 64.5q11 30 18 61t12 61q11 63 11 122t-5 111q-5 55 -19 98.5t-30 81.5q-14 35 -30.5 61t-30.5 43 q-5 11 -10.5 16t-10.5 11l-6 5l-3 3q8 -8 14 -19q5 -5 6.5 -9.5t7.5 -9.5q5 -11 9 -19t10 -19q19 -41 33 -82q8 -22 12 -41t9 -41v-8q3 -5 3 -11q0 -5 1.5 -11t1.5 -11t1.5 -9.5t1.5 -9.5v-22q0 -3 1 -4.5t1 -3.5v-11v-19zM1292 -126q74 156 86 310.5t-37 276t-160 193.5 t-283 61q-177 -8 -311 -85.5t-228 -196.5t-147.5 -266.5t-64.5 -297.5q5 -273 146 -396t392 -117q93 3 194 54q87 46 194 151t219 313zM1114 863q66 3 122 27.5t103.5 62.5t87 84.5t69.5 95.5q71 112 121 254q27 98 32.5 173.5t-5.5 131.5t-34 95.5t-51 66.5q-66 63 -166 79 h-3q-3 0 -3 1.5t-3 1.5q-19 3 -38 3h-41l-73 -8q-46 -11 -98.5 -34.5t-107 -68.5t-107.5 -113t-97 -167q-60 -161 -71 -295q-5 -57 1.5 -115.5t31 -109t69.5 -90.5t119 -59h6h2q22 -5 36 -8q11 -3 20.5 -3t22.5 -2q14 -3 27.5 -3h27.5z" />
<glyph unicode="9" horiz-adv-x="2045" d="M1447 2023q221 -22 356.5 -102.5t207.5 -199t91.5 -263.5t5.5 -292q-33 -347 -224 -773q-137 -287 -319 -524q-79 -104 -173.5 -205t-208 -188.5t-241.5 -151.5t-270 -91q-19 -5 -38 -9q-16 -3 -38.5 -4t-43.5 -1q-38 -3 -69.5 0t-78.5 14q-74 16 -131 49 q-112 60 -169.5 151.5t-82 180t-24.5 157v82.5q5 147 54.5 264.5t136.5 223.5q19 25 41 36q19 11 39.5 11t42.5 -28q22 -30 25 -54.5t0 -43.5q-5 -22 -14 -41q-30 -71 -56 -154t-39 -179q-8 -46 -12.5 -118.5t8 -147.5t45 -136.5t103.5 -80.5q49 -14 102.5 -10t107 19 t101 37t85.5 44q25 14 48 27.5t48 29.5q90 60 185.5 142t191 191.5t188.5 248.5t178 317q38 79 58.5 129.5t47.5 121.5q-87 -112 -180 -183t-191.5 -108t-200.5 -42.5t-203 13.5q-205 38 -348.5 154.5t-181.5 315.5q-5 14 -6.5 30t-4.5 30q-14 126 17.5 273.5t118.5 319.5 q68 137 153 229.5t175 151t180 88.5t167 44q38 3 79 5q35 3 77.5 4t83.5 -4zM145 169q0 3 1 4.5t1 3.5v3q-14 -22 -24.5 -41t-21.5 -41q-19 -41 -30 -76q-14 -38 -18 -73.5t-7 -65.5q0 -14 1.5 -26.5t4.5 -25.5q0 -8 3 -11v-11q3 -3 2 -8q0 -3 1.5 -4.5t1.5 -4.5 q3 -5 3 -6.5t3 -6.5q0 -3 1 -4.5t1 -3.5q0 -3 3 -6v-3q-3 16 -4 33t-1 36q0 16 1 34t4 37q5 35 12 69t15 64q8 33 18 59t15 45q5 11 8 18t6 12zM1114 527q175 11 310 87.5t229.5 195t146 266t65.5 298.5q-5 273 -146 397t-392 119q-104 -11 -210 -71q-90 -52 -196.5 -157.5 t-199.5 -293.5q-74 -153 -86 -307t37 -275.5t159.5 -194t282.5 -64.5zM1906 603q90 224 123 426q38 202 22 361q0 5 -1.5 9.5t-1.5 9.5v8q0 8 -3 11q0 11 -2 19q0 11 -3 17v11q0 3 -1.5 4t-1.5 4q0 5 -1.5 8t-1.5 8q-3 5 -2.5 8t-2.5 9q0 5 -1.5 7.5t-1.5 8.5l-20.5 61.5 t-23.5 53.5q-19 46 -46 84q-14 16 -24.5 30t-19.5 25q-5 5 -9 9.5t-10 6.5q0 3 -5 8l-6 6q-5 3 -5 4t-3 4l-3 3q19 -22 37 -44t32 -46q16 -25 28.5 -51t23.5 -53t19 -54.5t13 -57.5q14 -63 17 -120q5 -63 1 -123t-12 -123q-16 -123 -49 -246q-16 -63 -37 -121.5t-43 -118.5 q-11 -30 -21.5 -57.5t-24.5 -57.5q-5 -5 -6.5 -13.5t-7.5 -13.5l-5 -14l-6 -16q-8 -14 -14.5 -27.5t-12.5 -27.5q-5 -5 -6.5 -13t-7.5 -14q-5 -8 -6.5 -15t-6.5 -12q-5 -14 -13.5 -27.5t-13.5 -27.5t-13.5 -26t-14.5 -26q-5 -11 -16 -27q-3 -5 -5.5 -12t-8.5 -15 q-8 -14 -15 -25t-15 -25q-5 -14 -13.5 -26t-16.5 -25q-5 -5 -6.5 -12.5t-7.5 -12.5q-5 -5 -16 -22q-8 -14 -15 -24.5t-15 -24.5q-16 -22 -31 -45t-32 -45q-5 -5 -8 -10.5t-8 -11.5q-3 -3 -4.5 -5.5t-3.5 -5.5q-5 -5 -9 -11l-32 -41q-33 -41 -66 -77.5t-65 -72.5 q-33 -35 -64.5 -65t-64.5 -61q-5 -5 -13.5 -12t-16.5 -15q-8 -5 -15 -12t-15 -12q-3 -3 -4 -3t-4 -3l-5 -5q-5 -5 -17 -11l-14 -14q-11 -5 -13 -8q-57 -44 -105 -72.5t-84 -45.5q-16 -8 -29.5 -13.5t-21.5 -10.5q-5 -3 -8 -4.5t-9 -1.5q-3 0 -3 -2q8 5 18 6.5t21 6.5t19 9 q11 5 19 8q19 8 37 16t37 19q35 19 69 39.5t67 45.5q66 46 126 95.5t114 103.5q55 55 103 111t94 113q14 14 23.5 29t20.5 29q5 8 10.5 16t11.5 14q5 11 11 13l8 17l41 57q8 14 17.5 30t17.5 30q8 8 19 30q5 5 8 13.5t9 13.5q5 14 19 30q5 8 6.5 15t6.5 15q5 5 8 13.5 t9 14.5q11 22 16 30q8 14 15 28.5t15 28.5t15 29t13 28q8 14 14.5 29t12.5 29q27 57 49 114z" />
<glyph unicode="=" horiz-adv-x="1026" d="M896 743q-14 -30 -40 -50.5t-64 -26.5q-101 3 -200.5 -1t-247.5 -4q-55 0 -75.5 16.5t-22.5 37.5q-3 25 11 55q11 19 24.5 38t35.5 41q3 5 11 8q16 5 30 9q46 3 170.5 7t312.5 -10q27 -5 44 -19q14 -14 20.5 -37t-9.5 -64zM776 437q-14 -30 -40 -50.5t-64 -26.5 q-101 3 -199.5 -1t-245.5 -4q-55 0 -75.5 16.5t-23.5 38.5q-3 25 11 54q19 41 60 79q5 5 11 9q8 5 28 8q46 3 170 7t316 -10q27 -5 43 -19q14 -14 21 -37t-12 -64z" />
<glyph unicode="@" horiz-adv-x="2140" d="M1840 319q3 5 6 9q8 8 14 -3q8 -14 12 -35.5t-4 -38.5q-52 -106 -117.5 -184t-139.5 -132.5t-150.5 -87.5t-147.5 -52q-169 -44 -349 -27q-169 25 -289.5 76.5t-202.5 120t-128 149t-68 159.5q-52 188 -8 410q27 134 107.5 271.5t210 248t304.5 179t393 65.5 q202 -3 347 -76.5t221.5 -191t79 -263.5t-79.5 -293q-30 -60 -66.5 -101t-75.5 -80q-14 -14 -52 -46.5t-92 -62.5q-68 -46 -119 -65.5t-86 -24.5q-41 -8 -71 -3q-49 5 -82 41q-30 30 -35.5 76.5t-2.5 71.5q-41 -44 -86 -87.5t-89 -79t-85 -57.5t-71 -22q-66 3 -104 54.5 t-32 131.5q3 74 31.5 157t75 163.5t103.5 154.5t116 127t113.5 81.5t98.5 23.5q68 -11 106 -46.5t54.5 -72.5t11 -67t-24.5 -33q-38 -3 -36.5 18t-12.5 34q-16 14 -60 -5t-134 -123q-44 -52 -94.5 -128.5t-88.5 -149t-57 -124t0 -54.5t75 43.5t123 115t128.5 143.5t88.5 132 q3 11 1.5 19t-1.5 19q-3 3 0 11q0 14 16 22q35 16 73.5 0t44.5 -79q3 -44 -12.5 -82t-39.5 -90q-66 -142 -71 -208v-12t5 -12q19 -22 63 -7t90.5 43.5t86 60t50.5 42.5q57 57 100.5 143t49.5 218q3 90 -15 159.5t-52 120t-77.5 84.5t-90.5 56q-109 49 -251 57 q-131 -3 -237.5 -34t-191 -81.5t-149 -113.5t-110.5 -128q-109 -153 -161 -350q-27 -137 -18 -239t43.5 -178.5t87.5 -130t113 -88.5q139 -82 339 -96q115 -16 213 -5t178.5 39.5t145 69.5t113.5 85q114 103 185 245zM762 303q3 46 22 112q16 55 50 134t100 183 q63 104 123 158.5t106 81.5q52 30 99 36q-3 8 -33 12t-79.5 -19t-113.5 -83.5t-132 -174.5q-71 -117 -102.5 -199.5t-39.5 -136.5q-11 -63 0 -104zM1827 1100q-3 0 -3 3q5 -14 11 -30q0 -8 3 -14q0 -3 1 -5.5t1 -7.5q5 -16 6 -25q0 -3 1.5 -5.5t1.5 -5.5q0 -8 2 -13 q5 -22 7 -42.5t4 -39.5q0 -11 3 -17v-13q0 -5 1.5 -8t1.5 -6v-11q0 -5 1.5 -8t1.5 -5v-6q14 44 10 87q0 46 -13 88q-5 22 -13.5 37t-14.5 26l-5 11q-5 5 -5 8q-3 -1 -3 2zM363 745q5 11 6 20q14 35 28.5 66.5t28.5 61.5q16 30 31 56t32 48q30 46 57 79t49 54q3 8 11 11 q3 5 8 11l14 14l8 8l3 3q-25 -19 -50.5 -41t-47.5 -46q-25 -27 -47 -54.5t-43 -57.5q-22 -30 -38.5 -61.5t-30.5 -61.5q-30 -71 -46 -129q-16 -63 -21.5 -116t-5.5 -91v-37t2 -26q0 -5 1.5 -9.5t1.5 -6.5v-6v44v24q3 5 3 22q3 22 4 42.5t7 42.5q3 5 2.5 10.5t2.5 11.5 q0 5 1.5 9t1.5 10q5 11 6.5 20.5t4.5 17.5q3 5 3 9.5t2 9.5q3 5 3 9.5t3 9.5t2.5 9.5t2.5 9.5z" />
<glyph unicode="A" horiz-adv-x="3102" d="M3591 1966q-3 -5 -11 -16q-16 -22 -30 -36q-8 -8 -58.5 -71t-132.5 -205t-192.5 -375.5t-239.5 -582.5q115 -16 142.5 -75t13.5 -135q-11 -66 -28.5 -89t-37.5 -26q-22 -3 -46 14q-8 22 -45 31.5t-92 11.5q-93 -284 -124 -464t-24.5 -286.5t42 -153t76.5 -65.5t79.5 -26 t51.5 -29q22 -38 -6.5 -62.5t-61.5 -38.5q-22 -5 -42.5 -6.5t-39.5 1.5q-22 3 -41 8q-134 41 -198 146t-77.5 252.5t16.5 328t87 373.5q-52 -5 -95.5 -13t-78.5 -14q-41 -8 -77 -13q-259 -57 -491 -66q-175 -131 -358 -233.5t-367.5 -160t-368.5 -61.5t-359 59 q-134 55 -202 156q-30 44 -45 101t-8.5 132t42 169.5t112.5 208.5q30 46 75 61.5t86 9.5q49 -5 98 -24q352 -128 650 -169t546 -31q183 131 359 283t338.5 304.5t304.5 301.5t254 273.5t191.5 217t117.5 136.5l27 27t45 35.5t59 23.5t68 -4q142 -44 96 -134zM3001 1469 q-164 -208 -378.5 -449.5t-465.5 -467.5q66 14 127.5 28.5t115.5 28.5q76 19 140.5 32.5t119.5 24.5q22 63 46.5 124.5t48.5 121.5q63 161 126 299t120 258zM431 576q-74 -106 -105 -185.5t-32.5 -136.5t22 -95.5t58.5 -62.5q85 -57 240 -58q183 -5 385 63t410 191 q-227 22 -407 70t-308 94q-151 54 -263 120zM532 -101q199 -41 381 -4t324 97q164 71 309 172q-194 -112 -375.5 -166.5t-323.5 -76.5q-168 -27 -315 -22zM3012 590q-49 38 -134 41t-196.5 -15t-248.5 -52t-287 -67q-175 -38 -342.5 -46.5t-301.5 -2.5q-156 8 -298 30 q158 -49 325 -61.5t329.5 0t315.5 44t286 69.5q164 46 270.5 59.5t169.5 13.5q74 1 112 -13zM2903 759q90 284 187 494.5t179 349.5q96 164 188 278q-172 -180 -278.5 -375t-169.5 -362q-71 -194 -106 -385z" />
<glyph unicode="B" horiz-adv-x="1914" d="M2089 2081q90 -60 158 -150q57 -76 95.5 -192.5t14.5 -272.5q-22 -131 -79.5 -252.5t-138 -226.5t-181.5 -189.5t-209 -142t-218.5 -82t-211.5 -10.5q142 -38 251 -121q46 -35 88.5 -83t72.5 -109.5t44 -140.5t3 -175q-25 -221 -146.5 -369.5t-292 -221t-368.5 -67 t-378 89.5q-85 41 -142.5 98.5t-94.5 120.5t-56 125.5t-24 114.5q-14 150 17.5 270.5t64.5 196.5q63 134 150 251.5t199 199.5q22 14 44 22q19 5 35.5 1t24.5 -26t0 -50.5t-24.5 -60t-37 -63t-36.5 -58.5q-41 -66 -78 -145t-64.5 -159.5t-45 -157t-23.5 -139.5 q-11 -96 5.5 -168t49.5 -125.5t76.5 -87.5t92.5 -56q112 -49 265 -49q188 0 325 104t200 336q35 131 28 230.5t-39.5 173.5t-86 124.5t-110.5 83t-114.5 49t-98.5 24.5q-46 -123 -81.5 -233.5t-61.5 -202t-42.5 -158.5t-24.5 -102q-14 -66 -45.5 -72.5t-63.5 12.5 q-38 22 -82 71q-16 30 0 132.5t54 243t90 305.5t106.5 319.5t106.5 284t90 203.5q55 109 101.5 165t79.5 83q38 30 68 33q22 0 44 -8q19 -8 39.5 -24.5t39.5 -49.5q16 -30 13.5 -60t-13.5 -54q-11 -30 -30 -55q-96 -161 -176.5 -331.5t-145.5 -334.5q96 -30 244.5 15 t339.5 206q131 112 214.5 233.5t129.5 225.5q55 120 82 237q22 104 13.5 165.5t-30.5 96.5q-25 41 -65 58q-52 27 -140.5 29.5t-200.5 -19t-243 -68t-266.5 -119t-268 -169.5t-249.5 -217q-156 -161 -235 -297.5t-117 -240.5q-44 -120 -47 -218q-8 -44 -24 -74 q-14 -25 -42.5 -34.5t-72.5 20.5q-46 33 -64 119t4 205t89 263.5t187 294.5q90 112 215.5 228t271.5 217.5t306 179t318 114.5t305.5 20.5t273.5 -103.5zM931 1761q169 115 323.5 186t277.5 112q142 49 265 71q-227 -22 -415.5 -85t-342.5 -153t-274.5 -196.5t-210.5 -212.5 q-213 -254 -333 -563q79 156 186 306q90 131 221 275.5t303 259.5zM811 112q76 279 161 532q35 109 76.5 222.5t86.5 221.5t92.5 203.5t96.5 166.5q-104 -134 -199 -328q-82 -167 -169.5 -417.5t-144.5 -600.5zM350 -210q3 112 27 235q22 104 65.5 233.5t128.5 260.5 q-82 -101 -140 -219q-49 -101 -80 -232t-1 -278zM1592 341q82 -147 90 -283.5t-16 -245.5q-30 -128 -90 -241q44 46 71 103.5t41 104.5q16 55 24 112q19 112 2.5 195t-43.5 141q-30 68 -79 114zM1748 735q90 41 162 96.5t128 117t97 127t71 125.5q68 142 93 295 q-55 -194 -146 -335.5t-181 -237.5q-107 -109 -224 -188z" />
<glyph unicode="C" horiz-adv-x="1753" d="M1723 2078q123 25 210 -3q35 -11 68 -35.5t53.5 -65.5t23.5 -102.5t-19 -148.5q-57 -227 -229 -344q-74 -55 -139.5 -53.5t-84.5 61.5q-11 35 4 69.5t37 64.5q27 33 62 63q85 71 141 155.5t51 180.5q-5 79 -76.5 70.5t-182 -79.5t-245.5 -191t-267.5 -264.5t-250 -300.5 t-191.5 -298q-188 -363 -245.5 -629t-14 -442t170.5 -265t305 -100q240 -14 436.5 91.5t344.5 282.5q14 16 27 36q14 16 30.5 36.5t32.5 42.5q25 30 48 49t37 -3q19 -30 10.5 -66.5t-24.5 -72.5q-19 -41 -52 -82q-63 -79 -150.5 -168t-204.5 -158.5t-262 -107.5t-317 -19 q-235 25 -377 106.5t-215.5 202t-88.5 265t4 291.5q44 347 257 771q98 188 207 337t217 266t214.5 203t202.5 149q224 145 442 205zM464 702q106 232 252.5 434t282.5 352q158 175 325 322q-183 -134 -355 -308q-74 -74 -153 -165.5t-156.5 -198t-147.5 -229.5t-127 -256 q-98 -262 -128 -497q-14 -101 -11.5 -205t28.5 -199.5t82 -177.5t152 -137q-128 109 -183 284q-25 74 -35.5 172.5t1.5 220t53 267.5t120 321z" />
<glyph unicode="D" horiz-adv-x="2514" d="M705 -139q-16 30 0 132.5t54 243t90 305.5t106.5 319.5t106.5 284t90 203.5q55 109 100 165t78 83q38 30 68 33q25 0 47 -8q19 -8 39.5 -24.5t39.5 -49.5q14 -30 12.5 -60t-12.5 -54q-11 -30 -33 -55q-134 -227 -239 -470t-180 -457t-120 -375.5t-59 -226.5 q-14 -66 -46.5 -72.5t-62.5 12.5q-38 22 -79 71zM1333 1458q-101 -134 -197 -328q-82 -167 -169.5 -418t-144.5 -600q76 279 161 532q35 109 76 222.5t86.5 221.5t93.5 203.5t94 166.5zM2100 2081q169 -109 281 -295q49 -79 88.5 -184.5t60 -236.5t18 -292t-43.5 -352 q-82 -385 -251.5 -663.5t-383.5 -456t-450.5 -257t-446.5 -65.5q-55 0 -117 11q-55 8 -120.5 24.5t-133.5 51.5q-82 41 -141 100t-95.5 121.5t-54.5 124t-23 113.5q-16 150 16.5 270.5t65.5 196.5q63 134 148.5 251.5t200.5 199.5q22 14 44 22q16 5 34 1t26 -26t0 -50.5 t-24.5 -60t-37 -63t-39.5 -58.5q-41 -66 -76.5 -145t-63 -159.5t-45 -157t-23.5 -139.5q-11 -96 5.5 -168t49.5 -125.5t76.5 -87.5t92.5 -56q112 -49 262 -49q224 8 437 120q90 49 190 125.5t195.5 191.5t185.5 272t164 367q76 218 113 395.5t46.5 321t-4 254t-38.5 192.5 q-60 191 -188 290q-79 41 -236 27t-351 -85t-400 -196.5t-381 -308.5q-156 -161 -235 -297.5t-117 -240.5q-44 -120 -47 -218q-8 -44 -24 -74q-14 -25 -42.5 -34.5t-72.5 20.5q-46 33 -64 119t4 205t88.5 263.5t187.5 294.5q90 112 215.5 228t271.5 217.5t306 179t318 114.5 t305.5 20.5t273.5 -103.5zM939 1761q169 115 325 186t279 112q142 49 265 71q-227 -22 -415.5 -85t-342.5 -153t-274.5 -196.5t-210.5 -212.5q-213 -254 -333 -563q79 156 186 306q90 131 219.5 275.5t301.5 259.5zM360 -210q3 112 28 235q22 104 65.5 233.5t128.5 260.5 q-82 -101 -140 -219q-49 -101 -80.5 -232t-1.5 -278zM2474 904q14 123 8 216q0 90 -8 144q0 14 -1.5 23.5t-1.5 15.5q-3 0 -2 5v3v5q0 -14 1 -27.5t1 -26.5v-52q0 -27 -1 -53.5t-4 -50.5q-3 -52 -8.5 -101t-13.5 -98q-5 -46 -15 -93t-21 -93l-24 -90q-5 -22 -12 -42.5 t-13 -42.5q-27 -82 -58.5 -157t-64.5 -146l-16 -33q-8 -11 -19 -33t-16 -30q-11 -22 -20 -32q-5 -8 -16 -30q-5 -5 -8 -13.5t-8 -14.5q-8 -11 -19 -27q-5 -11 -17 -27q-71 -106 -136.5 -184t-111.5 -130l-22 -22l-22 -22l-16 -16q-11 -11 -14 -17q-8 -5 -12 -10.5t-10 -8.5 l-5 -5q30 22 57 45t57 50q30 25 57.5 52t57.5 57q109 115 202 257q90 139 153 290q30 76 54.5 150t41.5 145q19 71 30 139t16 131z" />
<glyph unicode="E" horiz-adv-x="1990" d="M2753 1887q0 -25 -3 -49q-3 -22 -10 -44t-23 -44q-19 -22 -43.5 -24.5t-52.5 30.5q-14 16 -56 46t-136 48t-247 12.5t-382 -62.5q-71 -101 -147.5 -231t-149 -262.5t-134 -252.5t-102.5 -202q96 35 192.5 57t200.5 30q33 3 82 4.5t99.5 -2.5t93 -20.5t61.5 -52.5 q16 -30 8 -62.5t-27 -62.5q-22 -30 -64 -38.5t-78 -5.5q-180 16 -342.5 1t-337.5 -80q-101 -213 -168 -377t-108 -287t-60 -210t-22 -145q-11 -137 47 -172q123 -46 263.5 -27t284 75t280 135t247 151.5t185.5 126t100 58.5t35.5 -5.5t12 -28.5t-2.5 -42.5t-10 -43.5 q-5 -16 -16 -33q-8 -14 -22 -33t-36 -38q-90 -82 -218 -177.5t-292 -168t-360.5 -101t-426.5 20.5q-123 27 -180 116t-64 223t30 303t104 355t154 379.5t183 376.5t188.5 347t171.5 292q-265 -98 -441 -192t-283.5 -183t-158 -169.5t-64.5 -153t-1.5 -134t31.5 -109 t32.5 -80.5t2.5 -49q-22 -30 -61.5 -23.5t-66.5 31.5q-22 16 -34 36.5t-23 40.5q-11 22 -19 46q-41 139 -18 262t91.5 228t170.5 195t221 164t246 131.5t242 100.5q8 5 16 6.5t16 7.5q55 22 122 46.5t146 49.5l16 24q27 35 63 63q30 22 75 41t103 19q22 0 41 -6 q16 -5 29.5 -14.5t19.5 -25.5q142 35 280 53t247 5.5t179 -63t78 -151.5zM1281 -683q-5 -3 -14 -2q-3 0 -5 -3q74 8 158 30q87 27 161 57q79 35 154 76.5t138 84.5q63 46 113.5 86t88.5 73q19 14 33 27.5t22 21.5l8 8t8 6l3 5q-22 -16 -44 -32.5t-43 -33.5 q-22 -14 -44 -28.5t-44 -28.5q-44 -30 -84.5 -56t-79.5 -48q-79 -46 -148.5 -83t-132.5 -67q-14 -5 -29 -12t-28 -12q-8 -3 -15 -6t-12 -5q-5 -3 -7 -3t-7 -3q-3 -3 -5.5 -3t-5.5 -2q-14 -5 -25 -8t-21 -9q-11 -5 -21 -6.5t-18 -6.5q-11 -3 -17.5 -4.5t-14.5 -3.5 q-17 -6 -22 -9zM1458 1543q5 11 9.5 20.5t9.5 14.5q3 8 6 11q-30 -46 -60 -94t-60 -94t-56 -94t-54 -95q-55 -93 -101 -180t-90 -175q-172 -339 -259 -611q-25 -68 -41 -126q-8 -30 -16.5 -57.5t-13.5 -54.5t-9.5 -53t-9.5 -48t-6.5 -42.5t-4.5 -39.5q-5 -38 -4 -66.5 t1 -50.5q0 -11 3 -17v-10q0 -5 1.5 -5.5t1.5 -3.5v-2q-3 19 -1.5 38t3.5 41q0 14 3 19v11q0 3 1.5 4t1.5 4q0 5 1 10.5t1 11.5q0 5 1.5 9.5t1.5 9.5l3 11l3 8q0 5 1 10.5t1 11.5q3 5 3 9.5t3 9.5q0 5 5 22q5 27 11 41q0 8 6 19q0 8 5 19q14 41 26 82t26 85q14 41 30 82 t33 81q33 79 67 160t69 160q5 14 12 29t16 28q16 41 35 80q19 41 38 81.5t39 81.5q68 139 128 259.5t106 207.5q25 44 42.5 78t31.5 59zM1475 1819q5 3 9 4t7 4t5 3q-11 -5 -21.5 -7t-21.5 -7q-5 0 -22 -6q-3 0 -5.5 -1t-5.5 -1t-5.5 -1.5t-5.5 -1.5q-22 -8 -45 -15t-45 -15 q-46 -14 -92.5 -31.5t-93.5 -39.5l-22 -11q-11 -3 -21 -11q-14 -5 -23.5 -9.5t-23.5 -9.5q-11 -5 -20.5 -12t-23.5 -13q-5 -3 -10.5 -4t-10.5 -7q-5 -3 -11 -5.5t-11 -4.5q-41 -25 -80.5 -49.5t-78.5 -49.5q-38 -27 -69.5 -51.5t-58.5 -49.5q-30 -25 -53 -48t-43 -45 q-19 -22 -31 -38t-20 -30q-5 -8 -8 -12t-6 -10q0 -3 -1.5 -2.5t-1.5 -2.5v-3q8 16 19 27q3 8 11 11q3 5 11 14q11 11 20.5 22t23.5 22q22 22 45 41t48 35q46 38 92.5 68t92.5 58q46 30 88.5 53t83.5 45q5 3 11 4t11 4q5 5 9.5 6.5t9.5 4.5t9.5 5.5t9.5 5.5q8 3 20 8 q22 11 39.5 19.5t33.5 16.5q142 66 221 98q22 8 36 14t25 11zM2701 1857q3 14 1.5 31.5t-7.5 33.5q-3 8 -5.5 18t-7.5 18t-11 15t-11 15q-30 30 -58 44q-16 5 -32.5 10.5t-32.5 10.5q-30 5 -57.5 7t-49.5 2q-11 0 -17.5 -1.5t-12.5 -1.5h-8h-3q14 -3 23.5 -3t20.5 -3 q14 -3 23.5 -4t20.5 -4q22 -5 39.5 -9t36.5 -10q35 -14 60 -30q14 -8 25 -17.5t19 -17.5q5 -5 8 -11t6 -11q5 -5 6.5 -9.5t4.5 -9.5q8 -16 13 -33q3 -11 3 -25q3 -2 3 -5z" />
<glyph unicode="F" horiz-adv-x="1671" d="M270 634q-5 5 -10.5 13t-11.5 19l-16 28q-16 30 -24.5 53t-13.5 37q-30 134 -3 252.5t97 221t172.5 188.5t218.5 158.5t240 128.5t236 99q8 5 16.5 6.5t16.5 7.5q55 22 123 46.5t144 49.5q8 8 20 24q27 35 62 63q30 22 74 41t101 19q25 0 44 -6q16 -5 30 -14.5t19 -25.5 q142 35 280 53t245.5 5.5t177.5 -63t78 -151.5q0 -25 -3 -49q-3 -22 -9.5 -44t-23.5 -44q-16 -22 -42 -24.5t-50 30.5q-14 16 -57.5 46t-136.5 48t-246 12.5t-382 -62.5q-66 -90 -135.5 -206.5t-135 -236.5t-125.5 -234.5t-104 -202.5q52 19 123 37t143.5 22t138 -12.5 t106.5 -65.5q22 -30 32 -60q8 -27 8.5 -61.5t-21.5 -72.5q-3 -5 -8 -11q-5 -5 -11 -9t-11 -10q-16 -5 -33 -5q-11 0 -20.5 6.5t-12.5 26.5q-3 11 -27.5 38t-86 40.5t-166.5 -1.5t-263 -86q-134 -273 -216 -469.5t-120 -338.5q-35 -139 -51.5 -229t-19.5 -147.5t2.5 -86 t13.5 -44t15 -23.5t4 -22q-8 -38 -43 -49q-16 -5 -36 -5q-76 5 -107.5 70.5t-35.5 154.5t8 182t26 155q25 156 3 290t-61.5 237.5t-81 170.5t-57.5 92zM339 1226q5 8 9 15t10 12q3 5 5.5 7t5.5 4q3 5 5.5 6.5t5.5 7.5l43 44q49 44 93 76q46 38 92.5 68t93.5 58q46 30 90 53 t85 45q5 3 9 4t10 4q11 8 22 11q5 3 9 5.5t10 5.5q11 5 19 8q19 11 36.5 19.5t36.5 16.5q71 33 127 57.5t95 40.5q19 8 34 13.5t26 11.5q11 5 13 8q3 3 6 3q-11 -5 -20.5 -7t-23.5 -7q-5 0 -22 -6q-3 0 -4 -1t-7 -1q-3 0 -4 -1.5t-7 -1.5q-22 -8 -45 -15t-45 -15 q-90 -27 -183 -71l-24 -11q-5 -3 -11 -4t-11 -7q-11 -5 -22 -9.5t-22 -9.5q-14 -5 -23 -12t-20 -13q-16 -5 -22 -11q-5 -3 -11 -5.5t-11 -4.5q-44 -25 -83.5 -49.5t-74.5 -49.5q-38 -27 -70 -51.5t-62 -49.5t-51.5 -48t-40.5 -45q-35 -38 -55 -68q-5 -8 -8 -12t-6 -10 q0 -3 -2 -5v-3zM369 765q11 -25 21 -50q8 -22 19.5 -42t19.5 -37q74 -139 104 -238.5t38 -165.5q66 191 155.5 392t188 393.5t197 365.5t180.5 307q-259 -96 -433 -188.5t-283 -178.5t-161 -166.5t-68.5 -151.5t-6.5 -131t29 -109zM1292 1540q5 14 9 23.5t10 14.5q5 8 8 14 q-63 -98 -120.5 -195t-111.5 -190q-52 -96 -100 -184.5t-91 -175.5q-87 -175 -153 -331t-112 -289q-22 -68 -40 -128.5t-31 -114.5q-8 -27 -13.5 -52t-11.5 -47q-3 -14 -4 -23t-1 -23q-3 -5 -3 -9.5t-3 -9.5q0 -14 -2 -19q-8 -79 -9 -118q0 -11 1.5 -17.5t1.5 -12.5v-11 q0 41 8 79q5 22 8 41.5t9 40.5q5 22 9 41t10 41l24 82q25 82 56.5 165.5t64.5 165.5q68 175 139 325q35 79 70.5 155.5t68.5 147.5q71 145 131 266t107 212q22 44 39.5 77.5t31.5 58.5zM2534 1857q5 35 -3 65q-5 16 -13 36q-5 8 -11 15t-11 15q-27 27 -60 44 q-16 5 -32.5 10.5t-33.5 10.5q-30 5 -57 7t-47 2q-11 0 -19 -1.5t-13 -1.5h-9h-2q14 -3 23.5 -3t22.5 -3l41 -8q22 -5 41 -9t36 -10q30 -11 60 -30q14 -8 24.5 -17.5t18.5 -17.5q5 -5 8 -11t9 -11q3 -5 4 -9.5t7 -9.5q5 -8 6.5 -18t4.5 -15q5 -22 5 -25v-5z" />
<glyph unicode="G" horiz-adv-x="1993" d="M2163 2018q27 -30 47.5 -73.5t26 -105t-9.5 -145t-56 -189.5q-57 -147 -148.5 -245.5t-217.5 -178.5q-27 -16 -52 -22q-22 -5 -41 2t-27 37q-11 33 -4 57.5t17 43.5q11 22 31 38q109 115 208.5 281.5t140.5 379.5q5 46 -18 55.5t-42 7.5q-79 -16 -224 -68.5t-325 -172.5 t-378 -327.5t-384 -535.5q-205 -355 -284 -625t-53 -451.5t151.5 -272t335.5 -87.5q115 3 243 79q55 33 118 85t129.5 131t139 188.5t143.5 253.5q33 82 64.5 154.5t58.5 132.5q5 11 9.5 20.5t9.5 20.5l3 3q3 5 5.5 12t5.5 12q-8 3 -25 3q-33 3 -97 -2.5t-150 -19t-184 -37 t-195 -53.5t-187.5 -69.5t-158.5 -86.5q-5 -5 -13.5 -12t-19.5 -15q-14 -14 -32.5 -30t-35.5 -19q-22 0 -41 15t-19 45q-3 44 16 90q14 38 52.5 80.5t109.5 78.5q101 49 232 88.5t269 67t273 41t241 10.5q19 -3 48 -11t51 -27t35.5 -52t5.5 -85q-5 -22 -11 -45t-17 -50 q-156 -355 -209 -588.5t-51.5 -374t34 -203.5t52.5 -79q30 -30 25.5 -55t-25.5 -41q-22 -14 -45.5 -19.5t-45.5 -7.5q-25 -3 -49 0q-79 11 -124 61.5t-61.5 128t-8 176t32.5 207.5q-63 -74 -132.5 -136.5t-147.5 -109t-164 -72.5t-178 -23q-251 3 -400 75t-224 188 t-87.5 262.5t12.5 298.5q57 355 297 809q197 347 443 614q104 115 229.5 221.5t268.5 187t303 123t332 28.5q25 -3 52 -11q22 -5 49 -20t52 -40zM1723 642q5 0 8 1t6 1h5q-79 0 -164 -8q-22 -3 -42 -4t-42 -4t-42.5 -5.5t-42.5 -8.5q-90 -14 -169 -32l-82 -20.5t-77 -23.5 q-74 -25 -134 -52t-103 -52q-46 -27 -63 -41l-16 -11q-3 -3 -6 -2q-3 0 -3 -3q14 8 25 15t25 15l49 24l98 41q25 8 48 16.5t48 16.5q22 8 45 15t45 12q90 25 172 41q5 3 9 3t10 3h8q3 3 11 3q11 3 38 8q8 3 16.5 3t19.5 2q5 3 16 3q5 3 8 3t8 2q19 3 34.5 4.5t31.5 4.5 q16 5 27 5q8 3 15 3t13 3q19 0 27 2q8 0 11 3h11q14 3 23.5 4.5t17.5 1.5q11 3 19 2.5t13 2.5q8 0 14 1.5t11 1.5zM1633 -898q-11 3 -20.5 8t-20.5 11q-11 5 -20.5 12t-17.5 18q-8 8 -15 17.5t-13 20.5q-11 16 -19 44q-14 35 -19 71q-3 11 -3 22v8h-2q-3 -16 -3 -32.5v-33.5 q0 -8 1.5 -15t3.5 -15q0 -8 1.5 -15t4.5 -15q5 -14 12 -26t13 -23q16 -22 32 -33q5 -5 9.5 -6.5t9.5 -4.5l17 -8q3 0 4 -1.5t4 -1.5h5q3 -3 9 -2h5q3 0 4.5 -1.5t3.5 -1.5h8h6v3zM1625 1974q-11 -3 -20.5 -5.5t-20.5 -5.5q-5 -3 -9.5 -4t-9.5 -4t-9.5 -4t-9.5 -4 q-19 -8 -38.5 -16.5t-38.5 -19.5q-68 -33 -142 -81q-74 -46 -134 -93q-8 -8 -30 -25q-5 -5 -8 -6.5t-8 -7.5q-5 -3 -6.5 -5.5t-7.5 -7.5q-16 -14 -31 -25t-29 -24l-8 -9l-6 -5q-11 -11 -16 -14l-27 -27l-27 -27l-14 -14l-8 -5l-6 -9l-27 -27q-5 -5 -12 -13.5t-13 -13.5 q-5 -5 -12 -13.5t-15 -13.5q-5 -8 -12 -15t-13 -16q-16 -16 -24 -27q-3 -5 -11 -13l-6 -9l-5 -5q-14 -14 -24.5 -29t-21.5 -28q-14 -14 -23.5 -29t-20.5 -29q-5 -5 -6.5 -8t-4.5 -5q-3 -5 -5.5 -8t-5.5 -9q-11 -16 -22 -27q-5 -8 -9 -15t-10 -15q-5 -5 -9.5 -13.5 t-9.5 -14.5q-14 -16 -19 -30q-8 -8 -11 -13q-5 -11 -8 -14q-11 -14 -19.5 -29t-18.5 -28q-5 -11 -9 -14l-8 -16q-5 -5 -8 -13.5t-8 -14.5q-5 -8 -9.5 -14.5t-9.5 -15.5q-3 -3 -9 -13q-3 -3 -8 -14q-11 -27 -30 -54q-5 -8 -8 -15t-8 -16q-11 -16 -14 -27q-8 -14 -15 -27.5 t-15 -26.5q-27 -55 -50.5 -109.5t-44.5 -109.5q-22 -55 -38.5 -105.5t-30.5 -99.5q-30 -101 -43.5 -192.5t-16.5 -170.5q-3 -82 8 -150t30 -123t41 -90q5 -5 11 -16q3 0 3 -3t1.5 -3t1.5 -3q3 -3 3 -4t2 -4q8 -8 19 -24q3 -5 9 -11l8 -9l13 -13q3 -5 4.5 -5.5t4.5 -2.5l2 -3 q-79 87 -109 205q-19 63 -22 120q-3 30 -2.5 61.5t0.5 61.5q3 30 5.5 61.5t7.5 63.5q8 60 25 123q14 63 34 124.5t42 121.5q22 63 46.5 121.5t54.5 116.5q14 30 29 57t29 57l8 14l8 14q5 14 14 27q8 14 16 27.5t16 26.5q11 27 30 55q8 14 16.5 27.5t16.5 27.5t16.5 26 t16.5 26q3 5 4 6.5t4 6.5q3 3 4.5 5.5t3.5 5.5q5 5 8 13.5t9 13.5l16 25q3 3 8 14l11 11l33 49l16 24q5 5 9.5 11t10.5 11q8 14 16 25l16 22q22 27 36 46q11 11 19 22l16 22q5 5 9.5 10.5t9.5 11.5q5 5 8 9t9 10q5 5 9 10.5t10 11.5q5 5 8 9t8 10q11 11 19.5 20.5t16.5 20.5 l9 9l10 10l16 16l9.5 9.5l9.5 9.5t8 9.5t9 9.5q5 5 9 8t10 9l16 16q71 68 136.5 123t125.5 96t109.5 68t84.5 46q35 16 58 25q5 3 8 3t5 2h6zM2171 1655q-5 -14 -11 -25t-11 -24q-5 -14 -10.5 -25t-11.5 -22q-11 -22 -22 -42.5t-22 -39.5q-46 -79 -81 -131q-22 -27 -37 -46 t-26 -33l-11 -11q-5 -8 -8 -8q-3 -3 -3 -6t-3 -2q14 11 30.5 23t29.5 26q14 14 29 30t29 33q52 71 82 136q16 35 27 65.5t16 52.5q5 14 6.5 22t4.5 13v11z" />
<glyph unicode="H" horiz-adv-x="3066" d="M3413 2089q46 -8 77 -30q25 -19 31.5 -50.5t-31.5 -86.5q-5 -8 -14 -16q-5 -5 -12 -13.5t-12 -13.5q-8 -8 -54.5 -65.5t-124.5 -193t-183 -363.5t-234 -577q115 -16 142.5 -75t13.5 -135q-11 -66 -28.5 -89t-37.5 -26q-22 -3 -46 14q-8 22 -45 31.5t-92 11.5 q-93 -284 -124 -464t-24.5 -286.5t42 -153t76.5 -65.5t79.5 -26t51.5 -29q22 -38 -6.5 -62.5t-61.5 -38.5q-22 -5 -42.5 -6.5t-39.5 1.5q-22 3 -41 8q-134 41 -198 146t-77.5 252.5t16.5 328t87 373.5q-52 -5 -97 -13t-80 -14q-41 -8 -74 -13q-156 -35 -295 -50.5 t-265 -20.5q-106 -128 -212.5 -213t-209 -137t-198 -75t-177.5 -29q-194 -11 -374 55q-134 55 -202 155q-30 44 -45 101.5t-8.5 132.5t42 169t112.5 209q30 46 75 61.5t86 9.5q49 -5 98 -24q276 -101 490.5 -145t394.5 -52q41 55 78 109.5t72 111.5q52 85 105.5 208 t94 256.5t65.5 266t20.5 240.5t-44 176t-123.5 74q-76 5 -124 -31.5t-81 -95.5t-55 -127t-46.5 -128.5t-58.5 -100t-91 -36.5q-87 3 -120 37t-42 72q-11 46 9 101q30 98 72 169.5t88.5 122t97 81.5t97.5 50q109 44 229 33q27 3 92.5 -13.5t136.5 -67t128.5 -143.5t67 -247 t-48 -375t-215.5 -530q-27 -55 -54.5 -105.5t-57.5 -96.5q131 14 246 42.5t229 58.5q76 19 140.5 32.5t119.5 24.5q22 63 46.5 124.5t48.5 121.5q101 257 195.5 455t165.5 337q85 161 158 284q22 35 52 60q27 22 65 35.5t93 5.5zM1496 1931q3 0 3 1t3 1l3 3q-33 -11 -63 -38 q-30 -25 -55 -55t-44 -64t-32 -67q-14 -30 -19.5 -58.5t-10.5 -50.5q-5 -27 -6 -33v-11v-3q3 22 14 47q5 14 8 23.5t8 20.5q8 22 18 41t18 38q19 38 38 68t35 52q19 22 34.5 38.5t28.5 29.5q5 3 11 8zM573 571q-74 -106 -105 -185.5t-31 -138.5t23 -97t59 -63 q85 -57 240 -57q188 3 340 75t277 187q-202 22 -350.5 67t-249.5 92q-118 54 -203 120zM1171 -35q3 0 4.5 1t4.5 1t2 3q-55 -22 -114 -41q-63 -16 -126 -25q-66 -8 -128 -8q-30 0 -60 3t-60 8q-60 8 -104 25q-25 5 -45.5 13.5t-36.5 13.5q-16 8 -30 13.5t-22 11.5 q-11 5 -14 8q-3 0 -5 3q33 -25 74 -44q35 -22 73 -33q19 -8 37 -13.5t37 -10.5q5 0 9.5 -1.5t9.5 -1.5q5 -3 8 -3t9 -3q5 0 9 -1t10 -1q5 0 8 -1.5t8 -1.5q38 -5 71 -6.5t66 0.5q55 0 114 14q52 14 89 27.5t64 27.5q5 5 11 5q5 5 11 6q5 6 16 11zM2941 590q-49 38 -134 42 t-196.5 -13.5t-248.5 -52t-287 -69.5q-186 -46 -353.5 -51.5t-298.5 5.5q-153 11 -287 43q161 -63 327.5 -79t327.5 -4t313 46.5t285 72.5q164 46 270.5 59.5t169.5 13.5q74 1 112 -13zM3342 1849q0 3 1.5 2.5t1.5 2.5l3 3q-5 -5 -11 -12t-11 -13q-3 -5 -5.5 -6.5t-5.5 -6.5 t-5.5 -7t-5.5 -7q-11 -14 -20.5 -26t-20.5 -26t-19 -26t-19 -26q-8 -14 -17.5 -26t-18.5 -26q-8 -14 -16 -26t-16 -26q-5 -11 -9 -13q-3 -5 -4 -6.5t-4 -7.5q-11 -16 -13 -24q-16 -27 -30 -52t-28 -49q-55 -101 -93 -191.5t-65 -169.5q-5 -19 -12 -37t-13 -37 q-5 -19 -10.5 -35.5t-11.5 -29.5q-8 -33 -16 -58q-5 -22 -11 -49q-5 -22 -9 -37t-7 -28q-3 -14 -6 -25q11 22 19.5 45t19.5 45q5 11 7.5 22t8.5 22q5 14 9.5 25t9.5 21q5 14 9.5 25t9.5 22q5 8 11 24q5 16 11 25q11 22 20.5 46.5t17.5 49.5q41 96 85 187t85 176q0 3 1 4t1 4 q5 11 6 11q5 5 6.5 9.5t4.5 9.5q5 11 9 20.5t10 20.5q5 5 11 16q3 11 11 19q5 14 16 36q11 16 19 32.5t19 32.5q5 5 8 13.5t9 14.5q5 14 13 27q8 14 15 23.5t13 20.5q3 5 5.5 8t4.5 8q5 11 11 17q5 5 6.5 10.5t4.5 8.5z" />
<glyph unicode="I" horiz-adv-x="1086" d="M2176 1982q87 -44 134 -106.5t27 -157.5q-5 -22 -16 -44q-8 -19 -21.5 -41t-35.5 -36t-52 -12t-36 45q-14 71 -68.5 120.5t-136 80.5t-181.5 47.5t-201 22.5q-5 -5 -9 -11t-10 -11q-8 -8 -57 -68.5t-128.5 -201t-190 -380.5t-241.5 -609q-90 -251 -139 -433t-68.5 -310 t-14 -208.5t27.5 -129.5q63 -5 127 -15t133 -24q172 -30 244 -79t45 -106q-11 -22 -42.5 -27.5t-66.5 -0.5q-41 5 -90 19q-120 27 -226.5 35.5t-209 1.5t-201 -30t-202.5 -56q-35 -14 -77.5 -16.5t-72.5 24.5q-22 22 -39.5 53.5t-6.5 64.5q11 38 49 62.5t86 41t97 26 t79 15.5q82 14 158 16q-38 120 -31 280t46.5 340t103.5 371t138 377q150 374 278.5 625.5t191.5 365.5q-79 -5 -123 -8q-27 -3 -49 -5q-169 -25 -271.5 -73t-158.5 -108t-76.5 -124t-26 -120t-8.5 -95.5t-22 -50.5q-33 -16 -65.5 7t-46.5 56q-11 25 -13.5 50.5t-2.5 47.5 q0 25 5 49q11 112 63 199.5t132.5 153t180 108t206.5 66.5q205 38 415 49q90 3 187 1.5t196.5 -15t196.5 -39.5t187 -70zM1374 1720q3 3 2.5 6t2.5 5q0 3 3 3l-33 -49l-16 -25l-17 -24q-8 -14 -16 -25t-14 -24q-8 -14 -16 -25t-14 -25q-8 -14 -15 -24.5t-15 -24.5 q-5 -5 -6.5 -12t-7.5 -12q-5 -5 -6.5 -12t-6.5 -13q-5 -14 -13.5 -24.5t-14.5 -24.5q-5 -14 -13 -25t-14 -24q-52 -96 -97 -190t-86 -184q-8 -25 -19 -47q-5 -11 -9.5 -22t-9.5 -21q-8 -22 -17.5 -44t-18.5 -44q-8 -22 -16 -42.5t-16 -41.5q-11 -27 -14 -41q-5 -14 -8 -23.5 t-8 -20.5q-3 -11 -6 -19t-8 -19q-3 -11 -5.5 -20.5t-5.5 -20.5q-5 -11 -6.5 -20.5t-7.5 -18.5q-3 -11 -5.5 -20.5t-4.5 -20.5q-3 -8 -4.5 -17.5t-6.5 -17.5q0 -8 -6 -19q0 -5 -1.5 -9.5t-1.5 -9.5q-5 -19 -9 -37t-10 -34q-16 -71 -28.5 -135.5t-17.5 -118.5q-8 -57 -11 -105 t-6 -86v-71q0 -35 3 -49q0 -11 1.5 -18t1.5 -13v-10v41t3 40q0 5 1 11t1 11v9v10q3 11 3 20.5t3 23.5q0 5 1.5 9.5t1.5 9.5t1 11t1 11t1.5 10.5t1.5 11.5q0 5 1.5 10.5t1.5 11.5q3 11 4 20.5t4 22.5l8 41q0 5 1.5 11t1.5 11q3 5 3 11t2 11q3 14 4.5 23.5t4.5 20.5 q5 27 10 43q0 11 6 22q0 11 5 22q5 27 11 44q5 27 11 44l6 21l5 22l14 44l13 44l6 21l8 22q3 19 14 44q5 11 6.5 20.5t6.5 23.5q3 5 4.5 9t4.5 10q5 16 5 22q5 11 8 20.5t8 22.5l17 41q5 11 5 22q3 5 4.5 9.5t4.5 9.5l32 82q8 22 16.5 41t16.5 38l16 41q5 11 8 19.5t9 19.5 q5 11 8 19t8 19q0 8 6 19q3 5 4 9.5t4 9.5q66 150 126 274.5t106 214.5q22 46 41 81.5t33 57.5q8 14 12.5 23.5t9.5 14.5zM2144 1928q3 -3 5 -3h3q-22 11 -36 17l-16 8q-16 5 -19 5q-11 5 -19.5 8t-18.5 6l-17 8q-5 3 -9 3t-10 2q-74 25 -147 41q-22 5 -36 9q-8 0 -16 1 t-19 4q-8 3 -18 3t-18 3q-5 3 -16 2q-5 3 -19 3q-35 5 -69.5 8t-67.5 6q-66 5 -128.5 3.5t-122.5 -6.5q-5 0 -13.5 -1.5t-13.5 -1.5q-8 0 -15 -1.5t-16 -1.5q-14 -3 -27 -4t-27 -4q-25 -5 -51 -8t-47 -8q-5 -3 -12.5 -3t-12.5 -3q-8 0 -11 -2q-8 0 -11 -3q-27 -5 -44 -11 q-30 -5 -40 -11q-11 -3 -21 -5.5t-18 -5.5q-5 -3 -9 -3t-10 -2q-5 -3 -8 -3t-8 -3q-11 -5 -33 -11q-5 -3 -13.5 -5.5t-13.5 -5.5q-8 -3 -15 -5.5t-13 -4.5q-16 -5 -21 -9q-5 -3 -11 -4t-11 -4q-22 -11 -30 -14q-5 -5 -11 -6.5t-8 -3.5l-6 -3q98 35 219 65q60 14 118.5 25 t121.5 19q60 11 120 15t120 7t116 1.5t111 -7.5q109 -5 200.5 -21.5t159.5 -32.5q33 -11 59 -18t42 -12q11 -5 17 -6.5t11 -4.5z" />
<glyph unicode="J" horiz-adv-x="2127" d="M2436 1996q16 -35 27 -87t8.5 -132.5t-24.5 -194t-74 -271.5q-46 -131 -107.5 -299t-141.5 -354q-87 -202 -197.5 -412.5t-239 -394.5t-273 -324.5t-303.5 -200.5q-85 -33 -183 -47t-196 -5.5t-192.5 41t-170.5 92.5q-71 57 -130 143.5t-96 193t-46.5 228t15.5 249.5 q38 191 105 336t142 248.5t147.5 173.5t121.5 113q68 55 126 82q49 22 95.5 20.5t62.5 -64.5q14 -57 -15 -114.5t-67 -103.5q-46 -55 -104 -104q-139 -117 -226.5 -257.5t-129.5 -285.5t-46.5 -283t24.5 -250t86.5 -189.5t136.5 -102.5q120 -35 234.5 -5t207.5 82 q109 60 208 147q115 104 265 324t322 572q172 358 269 616t143 430q55 199 66 338q-63 -25 -139.5 -84.5t-158.5 -141.5q-194 -218 -322 -415q-55 -85 -100 -172.5t-68 -170.5t-16.5 -154t55.5 -123q30 -30 12.5 -53.5t-42.5 -34.5q-30 -14 -58.5 -15t-50.5 4q-27 5 -49 17 q-41 19 -68.5 56t-41 82t-15 94t9.5 98q33 161 115 311.5t176 276t184.5 218.5t139.5 139q19 19 61 52t95.5 65.5t117.5 60t130 35.5q22 3 43 3q38 0 77 -22q14 -8 25 -19q22 -22 38 -55zM1881 1813l6 6q-41 -30 -83.5 -65.5t-80.5 -74.5q-5 -5 -9.5 -9t-9.5 -10l-22 -22 l-8 -11l-11 -8q-11 -16 -19 -22l-74 -90q-16 -22 -32.5 -45t-32.5 -48t-31.5 -49t-28.5 -46q-55 -96 -99 -194q-19 -46 -33 -96q-5 -19 -10 -46q-3 -3 -3 -11q-3 -3 -3 -11q0 -5 -1.5 -10.5t-1.5 -11.5q0 -3 -1 -5.5t-1 -5.5v-5v-5q-3 -5 -3 -22v-9q0 -8 -3 -10v-20v-19 q0 -5 1.5 -9t1.5 -10v-16q0 -5 1.5 -8t1.5 -9q0 -5 1 -7.5t1 -8.5q0 -5 3 -8v-6q0 -3 1.5 -4t1.5 -4v-3q0 -3 3 -2q0 -5 1 -8t1 -6q5 -11 6 -11q0 -5 2 -5v-3v-3q5 -5 6 -11q3 -3 3 -4t2 -4q3 -5 4.5 -6.5t4.5 -7.5q3 0 2 -5q3 0 3 -1.5t3 -1.5q0 -3 2 -2q0 -3 3 -3v-3 q-3 3 -3 4.5t-2 3.5q-3 3 -3 4.5t-3 3.5l-8 17l-8 16q0 5 -1.5 6.5t-1.5 4.5l-3 8q-5 19 -6.5 35.5t-3.5 35.5q-3 66 13 140q0 5 1.5 8t1.5 8l3 8v8l2 6l3 8q3 5 3 8t3 8q5 16 10.5 31.5t10.5 31.5q14 30 26.5 57.5t25.5 57.5q27 55 56 102.5t59 94.5q14 22 29 43.5t28 43.5 q3 5 6 9.5t8 9.5q3 3 3 4t2 4q3 5 9 11q5 5 6.5 9.5t6.5 9.5t6.5 8t7.5 9q27 38 53 68t48 57q8 8 11 14q5 3 6.5 5.5t4.5 5.5q5 5 10.5 12t11.5 12l19 20l9 9l10 10q8 8 15 16t15 14q3 5 5.5 6.5t5.5 6.5q5 3 11 9zM322 -467q0 -3 3 -5h3q-16 16 -36 49q-8 14 -15 28.5 t-12 28.5q-14 30 -23.5 61.5t-17.5 61.5q-33 131 -33 270q0 137 33 268q8 33 16 64t19 62q11 30 22 58.5t25 58.5q14 27 26 53t26 51t28.5 49t28.5 46q27 44 54.5 79.5t52.5 65.5t45 53t34 37q8 5 13.5 11t10.5 11l6 5l3 3q-8 -8 -18 -15t-18 -15q-8 -5 -16.5 -13.5 t-16.5 -13.5l-63 -63q-14 -16 -27.5 -32.5t-26.5 -33.5q-14 -16 -26 -33.5t-26 -34.5q-49 -68 -86 -137.5t-67 -140.5q-57 -139 -74 -273q-11 -66 -12 -127.5t4 -115.5q5 -30 8 -55t8 -49q5 -25 11 -46.5t11 -43.5t13.5 -40t14.5 -37q5 -16 13 -31t14 -29q30 -52 52 -74 q3 -5 8 -10q5 -6 8 -6zM2408 1734v-11q0 -3 -1 -5.5t-1 -5.5q0 -5 -1.5 -10.5t-1.5 -11.5q0 -5 -1.5 -9t-1.5 -10q-3 -5 -2.5 -10.5t-2.5 -11.5l-8 -41q-5 -14 -11 -41q-3 -11 -6 -20.5t-5 -20.5q-3 -11 -5.5 -20.5t-5.5 -17.5q-5 -22 -12 -41t-13 -38q-27 -79 -54.5 -154 t-57.5 -149q-60 -147 -122.5 -281t-125.5 -260q-16 -33 -31.5 -64t-31.5 -61q-5 -8 -8 -15t-8 -15t-7 -15t-7 -15l-33 -58q-30 -60 -62.5 -114.5t-65.5 -106.5q-30 -55 -63 -102.5t-65 -94.5q-33 -46 -67.5 -88.5t-66.5 -80.5q-5 -8 -17 -19q-3 -5 -8 -11l-8 -8 q-8 -11 -16.5 -19t-16.5 -19l-33 -33l-8 -8l-8 -8l-16 -17q-35 -30 -68 -58.5t-63 -50.5q-66 -49 -126 -80.5t-112 -50.5q-11 -3 -27 -8t-25 -6q-16 -5 -22 -8q-5 0 -10.5 -1.5t-11.5 -1.5q-5 -3 -10.5 -2.5t-10.5 -2.5h-20q-8 -3 -16 -3t-14 -3h-8h-5h-14h-19h-14 q57 -8 118 0q60 3 123 25q57 16 117 46q3 0 14 6l2 3h3l8 5q14 8 28 14q11 5 27 16l8 5l6 6l13 8q55 35 105.5 76.5t99.5 87.5q93 93 175 199q41 52 79 105.5t74 107.5q5 8 8 15t8 15l11 14q3 3 8 14q8 14 16.5 27.5t16.5 26.5l33 58q11 16 16 27q5 5 8 13.5t9 13.5 q30 57 58.5 113.5t55.5 110.5q8 14 15 27.5t13 27.5q5 8 8 15t5 12q5 8 6.5 15t7.5 12q14 30 24.5 56t24.5 54q5 14 12 26t13 25q5 14 10.5 27.5t10.5 27.5l25 49q5 14 9.5 26t9.5 26t11 25t11 24l8 25q5 11 6 14q3 3 2.5 5.5t2.5 4.5q8 25 17.5 49.5t18.5 46.5 q35 96 61 177.5t45 152.5q3 14 8 36q3 5 3 8t3 8q0 5 2 8v9q5 16 8 31t6 29q5 14 6.5 26t4.5 26t4.5 24.5t3.5 21.5q3 8 3 17.5t3 18.5q0 19 2 24v17v5z" />
<glyph unicode="K" horiz-adv-x="2572" d="M2949 -513q22 -8 38 -22q14 -14 25 -31.5t5 -45.5q-3 -27 -32.5 -53t-76 -42.5t-105.5 -17.5t-120.5 20.5t-122.5 73.5t-113 142q-55 90 -94.5 217t-64 246t-37 205t-12.5 94t-3 11q-14 96 -45 162.5t-73.5 110.5t-91.5 67t-95 31q-117 -216 -240.5 -363t-245 -242.5 t-238.5 -145t-221 -68.5q-246 -46 -478 44q-134 55 -199 155q-27 44 -44 101.5t-10 132.5t42.5 169t112.5 209q27 41 54 71q22 25 48 36t48 -11q19 -19 30 -47q8 -22 5.5 -54.5t-32.5 -70.5q-76 -106 -108 -185.5t-33 -137t23.5 -95.5t59.5 -63q85 -57 243 -60q169 0 310 60 t258.5 155.5t211.5 220t173 252.5q52 85 105.5 208t94.5 256.5t65.5 266t21.5 240.5t-42.5 176t-124.5 74q-79 5 -126.5 -31.5t-79 -95.5t-55 -127t-48 -128.5t-58.5 -100t-89 -36.5q-87 3 -120 37t-41 72q-11 46 8 101q30 98 71 169.5t89 122t97 81.5t96 50q109 44 229 33 q25 0 85 -12t125.5 -54.5t124 -119t80.5 -202t-5.5 -307t-130.5 -433.5q254 208 401 365t218 274.5t85 200.5t0 142t-35.5 97t-19.5 66q3 41 40 47.5t70 -1.5q44 -14 71 -38q16 -14 32 -30q109 -126 87.5 -288.5t-141.5 -340t-323.5 -356t-460.5 -337.5q52 -11 106.5 -35.5 t102.5 -69.5t85 -114.5t58 -168.5q71 -344 191.5 -574.5t308.5 -309.5zM1494 1936q-16 -5 -31.5 -15t-31.5 -23q-30 -25 -55 -55t-42.5 -64t-30.5 -67q-14 -30 -21 -58.5t-12 -50.5q-3 -11 -3 -19t-3 -14v-11v-3q5 14 8 25t9 22q3 14 7 23.5t9 20.5q16 44 36 79 q38 76 73 120q19 22 34 38.5t29 29.5q5 5 11 8l8 9zM2277 948q-22 -16 -35.5 -28.5t-24.5 -21.5q-11 -11 -19 -16q87 55 180 121.5t181 143.5l20.5 20.5t22.5 20.5l41 41l19 19l11 11q3 3 4.5 5.5t6.5 5.5q8 11 18 20.5t20 20.5q71 82 132 177q30 44 50.5 87.5t33.5 84.5 q27 85 33 153q0 8 1.5 16.5t-1.5 13.5v14v14q-3 14 -3 24.5t-5 18.5l-4.5 16.5t-1.5 11.5q-3 3 -2 8h-3v2q5 -16 5 -19q3 -8 3 -19q3 -5 3 -19v-19v-37t-6 -37q-5 -35 -14.5 -68t-23.5 -66q-14 -30 -29 -60t-34 -57q-5 -11 -16 -27l-3 -8l-5 -6q-3 -5 -4.5 -6.5t-3.5 -7.5 q-3 -5 -6 -6.5t-5 -6.5q-3 -3 -9 -14q-11 -16 -19 -24q-38 -49 -75 -93t-75 -82l-73.5 -73.5t-68.5 -66.5q-68 -60 -123 -106t-93 -76zM1737 576q5 14 12 23.5t12 20.5q19 30 35.5 61.5t33.5 61.5v2h2q5 14 9.5 23.5t9.5 23.5q22 41 40 83.5t34 82.5q14 41 26 81t26 78 q22 76 35.5 144.5t21.5 125.5q5 30 7 56t4 48q3 22 3 42.5v36.5v49v14v3q0 -16 -1.5 -32.5t-3.5 -36.5q0 -16 -1.5 -32.5t-4.5 -32.5q-5 -33 -10.5 -65.5t-11.5 -65.5q-8 -30 -15 -63t-15 -63t-17.5 -60t-20.5 -60q-19 -60 -41 -116t-46 -111q-52 -112 -107 -202 q-3 -8 -14 -24q-5 -5 -6.5 -12t-6.5 -13q-8 -14 -15 -23.5t-15 -22.5q-3 -5 -5.5 -11t-8.5 -11q-11 -16 -14 -22q-11 -16 -16 -22q-5 -5 -6.5 -10.5t-7.5 -11.5q-30 -44 -62.5 -82t-62.5 -76q-66 -71 -134 -128.5t-137 -100.5q-71 -44 -136.5 -71.5t-127.5 -43.5 q-68 -19 -115 -22q-27 -5 -52 -5h-46q-46 0 -79 4t-55 9q-22 3 -36 8q-5 0 -5 1.5t-3 1.5h-3q5 -3 22 -8q3 0 5.5 -1.5t5.5 -1.5q3 -3 5.5 -2.5t5.5 -2.5q8 0 25 -6q5 -3 10.5 -2.5t10.5 -2.5q25 -5 48 -8t51 -6q8 0 11 -2h13h25h24.5t24.5 2h14h5h8q8 3 25 3q5 3 14 3l11 2 q5 0 13 1.5t14 1.5q16 5 24 6l25 8l14 3q3 0 5.5 1t5.5 1q5 3 13 4.5t14 3.5l24 9l11 5q3 0 14 6l25 8q5 5 10.5 6.5t10.5 4.5q49 22 94.5 50.5t88.5 58.5q90 66 162 139q38 38 70.5 78t62.5 81q8 11 16.5 20.5t13.5 20.5q8 14 15 23t15 20q5 11 12.5 20.5t15.5 20.5z M2703 -631q3 0 3 -1.5t3 -1.5h3q-52 22 -91 52q-41 35 -73 82q-16 22 -31.5 46.5t-28.5 49.5q-14 27 -23.5 53t-20.5 53q-22 55 -38.5 109.5t-29.5 109.5q-14 55 -25 108t-19 102q-5 27 -9.5 52t-9.5 46q-3 14 -4.5 25t-3.5 22q-3 5 -3 12t-3 12q0 5 -5 22q-8 44 -19 79.5 t-25 65.5t-27.5 53t-24.5 37q-5 5 -9 10.5t-10 11.5q-3 0 -5 3l-3 2q5 -5 8 -6.5t6 -6.5q5 -5 5 -8l5 -9q5 -5 6 -8q5 -5 5 -8l6 -8q0 -3 1.5 -4.5t1.5 -3.5q3 -5 5.5 -8t2.5 -9l8 -16l8 -17q0 -3 1.5 -4t1.5 -4l3 -8q14 -35 22 -69.5t13 -67.5q5 -19 6.5 -35t4.5 -33 q3 -16 5.5 -32.5t5.5 -32.5q5 -33 10.5 -66t11.5 -63q11 -63 24.5 -118.5t27.5 -110.5q16 -55 34 -101t37 -90q11 -22 20.5 -40t20.5 -37t21.5 -35.5t21.5 -29.5q49 -57 88 -85q11 -5 20.5 -10.5t17.5 -11.5q22 -11 30 -13q3 0 4 -1.5t7 -1.5q2 0 5 -3z" />
<glyph unicode="L" horiz-adv-x="1611" d="M1414 -115q183 8 370.5 4t359.5 -25.5t319.5 -64t255 -108t166.5 -157t50 -214.5q-3 -22 -8 -44q-8 -44 -32 -73q-22 -25 -56.5 -41.5t-61.5 13.5q-19 22 -9.5 63t4 90t-47.5 101t-162.5 97t-341.5 75t-584 39q-218 5 -398.5 1t-328.5 -12q-128 -153 -257.5 -253 t-255.5 -127q-46 -11 -83 -11t-67 6q-33 5 -60 13q-44 14 -67 41.5t-37 54.5q-14 30 -19 65q-5 49 9.5 90t42.5 74q27 35 66.5 62.5t76.5 44t65.5 26t36.5 12.5q55 16 121 33q55 14 129.5 30t162.5 30q96 131 205 312.5t234 430.5q177 355 273 613t142 430q52 202 63 341 q-63 -25 -139 -86t-158 -141q-194 -218 -323 -415q-55 -85 -99.5 -172t-68 -170.5t-18 -154.5t54.5 -123q30 -30 12.5 -53t-42.5 -37q-30 -14 -57 -13.5t-49 5.5q-27 5 -49 16q-41 19 -68.5 56t-41 82t-15 94.5t9.5 98.5q33 158 113.5 309.5t174.5 277.5t185.5 218.5 t140.5 139.5q19 19 60 51.5t96 65.5t119 59t130 34q22 3 43 3q38 0 74 -22q14 -5 25 -17q11 -8 20.5 -23t19.5 -34v3q16 -38 26 -94t6 -141t-26 -199.5t-68 -264.5q-46 -134 -108 -293.5t-141 -345.5q-85 -191 -196.5 -400t-242.5 -398q76 8 156.5 13.5t167.5 8.5z M1360 1895q5 5 9.5 8t6.5 6l6 5q-14 -8 -23.5 -16t-20.5 -17q-5 -5 -12 -9t-13 -10q-5 -5 -10.5 -9t-10.5 -10q-8 -5 -22 -19q-3 -3 -5.5 -4t-5.5 -4t-5.5 -4.5t-5.5 -6.5q-11 -11 -22 -20.5t-22 -20.5q-5 -3 -11 -8l-11 -11l-10.5 -10.5t-10.5 -11.5q-5 -5 -11 -10.5 t-11 -11.5l-6 -8l-5 -5l-8 -11l-22 -22t-22 -25q-8 -14 -17.5 -23.5t-20.5 -22.5q-79 -101 -145 -202q-33 -52 -61.5 -102.5t-50.5 -102.5q-46 -96 -74 -191q-5 -22 -9 -44t-10 -44q-5 -41 0 -79q0 -16 3 -31t8 -29q3 -16 8 -24q3 -5 4.5 -11t3.5 -11q16 -22 20 -25l5 -5 q-3 3 -3 4t-2 4q-5 5 -6 8q-5 5 -11 16q-5 11 -6.5 20.5t-4.5 18.5q-5 11 -5 20.5t-3 17.5v41q3 38 9.5 73.5t17.5 71.5q5 11 9 19q3 5 2.5 8t2.5 8q5 11 5 16l9 17q5 8 6.5 16t6.5 17q11 22 14 32q8 16 16.5 31.5t16.5 28.5q3 5 2.5 8t2.5 9q5 11 8 13q11 22 17 31 q33 57 65.5 110t65.5 100q8 14 16 24.5t17 21.5q8 14 16 23.5t16 20.5q5 5 8 10.5t9 11.5q5 8 16 19q5 11 13.5 20.5t16.5 20.5q16 22 30 35q3 5 14 17l5 11l9 8q19 19 27 30q5 5 6.5 8t6.5 8l6 6l8 8q14 14 25 26t22 26l41 41l19 19l13 14zM369 -579q46 27 102 69.5 t119 108.5q-71 -8 -125.5 -15t-112.5 -21q-49 -11 -86 -30t-57.5 -42t-23 -48t16.5 -44q14 -14 37 -13.5t47.5 6t48 15t34.5 14.5zM1043 101q5 8 9.5 15t9.5 15q14 14 23.5 30t20.5 30t20.5 30.5t23.5 32.5q41 63 81.5 128.5t79.5 133.5q38 68 72 136.5t67 139.5 q30 71 57.5 138t51.5 132l42.5 127.5t34.5 118.5q35 117 46 199q8 44 13.5 77t8.5 57q3 14 3 22v14q3 5 2 11v2q-5 -25 -10.5 -49t-10.5 -49t-11 -48t-11 -48q-30 -96 -58 -180q-30 -87 -61 -169t-64 -161q-63 -153 -127 -283t-122 -236q-5 -8 -8 -15t-5 -12 q-11 -16 -17 -28q-3 -8 -13 -24q-3 -5 -6 -12t-5 -13q-8 -11 -15 -22t-13 -22q-5 -14 -12 -23t-12 -20q-11 -22 -22 -41t-22 -36q-11 -19 -19 -34t-16 -28q-5 -8 -8 -15t-9 -13q-11 -16 -13 -24q-8 -11 -12.5 -20.5t-9.5 -15.5q-8 -11 -14 -22q-3 -5 -5 -8q11 14 21.5 27.5 t21.5 27.5q11 16 22 27zM2493 -393q-90 41 -207 65q-55 14 -113.5 23.5t-116.5 15.5q-117 14 -233 17.5t-220 1.5q-104 0 -192.5 -5.5t-154.5 -11.5q-33 -3 -57.5 -5.5t-43.5 -5.5q-14 -3 -27 -2h-8h73.5t73.5 2h145q71 0 136.5 -1t128.5 -4q123 0 234 -8q14 0 27.5 -1.5 t27.5 -1.5q14 -3 25 -3t24 -2q14 0 26 -1.5t23 -1.5q19 0 47 -6h24q5 -3 22 -2q11 -3 20.5 -3t20.5 -3t20.5 -3t17.5 -2q11 -3 20.5 -3t18.5 -3q5 0 8 -1.5t8 -1.5t8 -1t8 -1q8 -3 16.5 -3t16.5 -3h8q0 -3 6 -2q5 0 8 -1.5t5 -1.5q8 -3 15 -3t13 -3q14 -3 23.5 -4t19.5 -4 q3 -3 9 -3q3 0 4 -1t4 -1q5 0 6.5 -1.5t7.5 -1.5z" />
<glyph unicode="M" horiz-adv-x="2990" d="M3069 934q-41 -96 -73 -180q-30 -71 -56 -141t-35 -97q-68 -197 -87 -322.5t-8 -197.5t42.5 -103.5t68 -46.5t68 -20.5t42.5 -27.5q19 -38 -11 -62.5t-63 -35.5q-22 -5 -43.5 -7t-40.5 1q-22 3 -41 8q-109 33 -165 113.5t-70 194t8 255.5t68 298q16 55 43.5 131t55.5 147 q30 82 68 169q27 68 71 170.5t80.5 198.5t51.5 167t-12 79t-84.5 -46.5t-134 -155.5t-168 -237.5t-189.5 -292.5t-196.5 -322.5t-185.5 -327.5q-5 -8 -15 -20.5t-25 -23.5t-37 -16.5t-49 0.5q-57 16 -79 50.5t-28 66.5q-14 49 7 134t51 164q33 93 79 197q14 41 29 80.5 t28 69.5q14 35 28 65q27 68 55.5 147.5t45 146.5t16.5 114.5t-27 56.5q-38 8 -116 -79.5t-180.5 -235t-218.5 -340t-231 -391.5q-41 -71 -87 -156q-38 -71 -88.5 -164t-102.5 -194q-76 -150 -135 -252.5t-100 -164.5q-49 -74 -82 -121q-27 -33 -57 -57q-30 -22 -68.5 -34 t-87.5 1q-49 8 -79 28q-25 16 -33 47.5t33 83.5q5 8 13 16q5 5 12.5 13.5t12.5 13.5q11 14 68.5 85t146 214.5t203.5 366t243 541.5q96 240 154.5 422t85.5 315.5t30 224t-10.5 147.5t-41 88.5t-57.5 48.5q-55 27 -109.5 14.5t-100.5 -34.5q-52 -30 -104 -71 q-87 -74 -174.5 -187t-168 -241.5t-151.5 -263.5t-123 -251t-80.5 -205t-26.5 -127q3 -27 -4 -45t-12 -29q-11 -14 -19 -21q-22 -14 -40 -14t-31 5q-16 5 -30 14q-46 30 -65.5 75t-19.5 99.5t16.5 115t38.5 120.5q19 57 68 169t131 250t198 285.5t275 278.5q98 85 185.5 131 t161 64t133.5 13.5t105 -18t72.5 -30t38.5 -24.5q87 -66 125.5 -175t35.5 -248t-37 -303t-91 -336q96 150 188.5 285.5t178.5 235t162.5 158t139.5 56.5q41 -3 69.5 -15.5t50.5 -34.5q46 -52 51.5 -142t-13.5 -191t-53 -200.5t-62 -170.5q-16 -35 -30 -74q-14 -33 -30 -75 t-33 -86q128 213 258 418t251.5 366t229.5 259t193 96q79 -3 120 -49q49 -57 38 -172t-50.5 -243.5t-89 -248.5t-76.5 -191zM2225 904q-3 -5 -2 -11v-3q11 25 22 51t24 56q11 27 20.5 54.5t20.5 57.5q8 30 16.5 58.5t13.5 58.5q8 30 12.5 57.5t9.5 54.5q3 8 3 15t2 12v14 q0 3 1.5 5.5t1.5 8.5q0 16 3 24v22q0 25 -1.5 45.5t-4.5 36.5q-8 33 -21 52l-3 3q0 3 -3 2q-5 5 -5 6l-3 3l3 -3q3 -3 2 -6q3 0 3 -2l3 -3v-3l3 -3q0 -3 2 -5q0 -3 3 -6v-2l3 -6v-5q0 -3 1.5 -4.5t1.5 -3.5q0 -5 1 -9.5t1 -9.5q3 -19 1.5 -37t-1.5 -37q-3 -11 -2.5 -19.5 t-2.5 -16.5q0 -5 -1.5 -8t-1.5 -8t-1.5 -9.5t-1.5 -9.5q-5 -16 -6.5 -32.5t-6.5 -33.5q-14 -63 -27.5 -117.5t-27.5 -100.5q-14 -49 -24 -82q-5 -19 -9.5 -34t-10.5 -29q-5 -14 -6.5 -23.5t-4.5 -14.5zM855 1797q-22 -14 -39 -30l-19 -19q-8 -5 -19 -17q-11 -8 -19 -19 q-8 -5 -19 -16l-38 -38q-38 -38 -75 -80.5t-73 -86.5q-71 -87 -127 -181.5t-99 -184.5q-22 -46 -40 -88.5t-31 -83.5q-14 -38 -25 -73.5t-19 -65.5t-12 -54.5t-10 -41.5q0 -8 -1.5 -15t-1.5 -12v-8q5 19 8 35.5t9 32.5q5 16 5 19q5 11 6 16q5 11 5 17q5 11 6 16 q14 33 24.5 64.5t24.5 61.5t27.5 58.5t26.5 58.5q14 30 29 56t29 53q30 52 58.5 98.5t58.5 90.5q5 5 6.5 10.5t7.5 11.5q5 5 8 10.5t5 11.5q8 11 15 20.5t16 17.5q5 11 12 20.5t15 17.5q5 11 12 19t12 17q8 8 14 19q5 5 6.5 8t7.5 8q8 8 24 30q14 14 25 29t22 28 q11 14 20.5 25t20.5 22q11 14 19 22t16 19q5 5 6.5 8t7.5 8q5 5 6.5 8t6.5 6q5 8 11 13.5t11 10.5zM1532 1494v2q-3 -16 -4.5 -31t-3.5 -31q-3 -5 -3 -13.5t-3 -16.5q0 -5 -1 -8t-1 -6q0 -5 -1.5 -8t-1.5 -8q-5 -30 -12 -59t-16 -59q-14 -60 -30 -116t-32 -111 q-5 -14 -9.5 -26t-9.5 -25q-3 -11 -9 -28q-5 -5 -6.5 -13.5t-4.5 -13.5l-8 -25q-3 -5 -2.5 -6.5t-2.5 -6.5t-3 -6.5t-3 -7.5q-5 -14 -9 -26t-10 -26q-22 -49 -41 -98t-41 -96q-41 -96 -82 -183t-82 -166q-5 -11 -9 -19.5t-10 -18.5q-3 -5 -5.5 -9.5t-5.5 -10.5 q-5 -14 -11 -19q-11 -22 -19 -39.5t-19 -36.5q-5 -8 -9 -17.5t-10 -18.5q-11 -14 -19 -35q-8 -11 -19 -33l-8 -16q-5 -5 -11 -17q-8 -16 -17.5 -32.5t-18.5 -32.5q-5 -11 -8 -14l-8 -16q-14 -16 -19 -30q-8 -14 -16.5 -27.5t-16.5 -27.5q-5 -11 -8 -14q-5 -11 -6 -13 q-11 -16 -16 -27q-8 -14 -15 -25t-15 -22q-3 -8 -14 -24q-3 -5 -5.5 -11t-7.5 -11q-14 -22 -25 -41t-22 -36q-11 -19 -20.5 -34t-17.5 -29t-15 -24.5t-12 -18.5q-5 -11 -9.5 -16.5t-7.5 -11.5l-5 -11q14 16 26 34t26 35q14 19 26 36.5t26 34.5q14 19 27.5 36.5t26.5 39.5 q5 8 12 18t13 18q5 11 13.5 20.5t13.5 17.5l25 41l8 8l5 11q5 5 7 9.5t7 9.5q14 22 26 41t26 38l49 82l11 22l14 19l24 44q46 82 91.5 166.5t86.5 169.5q38 85 75 168t67 165q30 79 53 154t45 146q19 71 32.5 132.5t24.5 116.5q8 52 13.5 94t8.5 72q0 33 3 44v14zM2829 461 q11 30 22 63t24 66q19 66 50 131q52 131 105 258t99 244q25 60 45.5 115t34.5 107q30 106 30 185v38.5t-6 32.5q0 3 -1.5 4.5t-1.5 3.5v9q-3 0 -2 5q-3 3 -3 8q-3 5 -5.5 11t-5.5 11t-5.5 8t-5.5 8q-5 3 -6.5 6t-4.5 5q-5 0 -5 1.5t-3 1.5t-3 3l3 -3h3q0 -3 1 -3t1 -2 q8 -5 9 -9q8 -8 13 -19t8 -21.5t6 -21.5q3 -14 3 -23.5v-20.5v-11v-14v-11v-5l-3 -5q-3 -22 -5.5 -42.5t-8.5 -42.5l-24 -82q0 -3 -1.5 -4t-1.5 -4q-3 -3 -3 -11q-3 -5 -4 -9.5t-4 -9.5q-5 -11 -6.5 -19.5t-7.5 -18.5q-5 -11 -8 -19.5t-8 -19.5q-3 -5 -4 -9t-4 -10 q-3 -5 -3 -9t-3 -10q-16 -38 -31 -72t-31 -70q-30 -71 -57.5 -135t-54.5 -127q-25 -63 -47 -119t-38 -110q-19 -55 -32.5 -101.5t-27.5 -90.5q-11 -41 -18 -77.5t-12 -66.5q0 -5 -1.5 -13.5t-1.5 -14.5q0 -5 -1.5 -12t-1.5 -12q-3 -14 -2.5 -22t0.5 -16t-1.5 -14t-1.5 -11 v-8q8 63 23 126.5t37 129.5z" />
<glyph unicode="N" horiz-adv-x="2427" d="M2452 934q-38 -96 -71 -180q-30 -71 -56 -141t-37 -97q-68 -197 -87 -322.5t-8 -197.5t43.5 -103.5t69.5 -46.5t68.5 -20.5t42.5 -27.5q16 -38 -14 -62.5t-63 -35.5q-22 -5 -42.5 -7t-39.5 1q-22 3 -41 8q-109 33 -165 113.5t-71 194t7 255.5t68 298q16 55 43.5 131 t54.5 147q30 82 69 169q27 68 58.5 154.5t52 161.5t22 129.5t-26.5 62.5q-25 5 -75 -33t-120 -110t-153 -174.5t-173 -221.5t-183 -250t-180 -265q-46 -71 -104 -164q-49 -79 -116 -193.5t-149 -262.5q-71 -128 -123 -216.5t-87 -143.5q-41 -66 -69 -107q-25 -33 -57 -57 q-30 -22 -69.5 -34t-88.5 1q-49 8 -80 28q-25 16 -33 47.5t33 83.5l17 16q5 5 12 13.5t12 13.5q11 14 67 85t145 214.5t203.5 366t242.5 541.5q96 240 154.5 422t87.5 315.5t31.5 224t-12.5 147.5t-41 88.5t-56 48.5q-55 27 -110.5 14.5t-102.5 -34.5q-55 -30 -103 -71 q-85 -74 -172.5 -187t-169.5 -241.5t-151.5 -263.5t-121.5 -251t-80.5 -205t-25.5 -127q0 -49 -19 -74q-11 -14 -20 -21q-19 -14 -36.5 -14t-31.5 5q-16 5 -30 14q-46 30 -65.5 75t-19.5 99.5t15.5 115t36.5 120.5q19 57 68.5 169t131.5 250t199 285.5t276 278.5 q98 85 185.5 131t161 64t134 13.5t104 -18t71 -30t37.5 -24.5q98 -71 134 -198t25 -289.5t-60 -349.5t-118 -378q128 175 256.5 337.5t247.5 285.5t221.5 195t175.5 70q41 -3 70 -15.5t51 -34.5q46 -52 50 -142t-15 -191t-52 -200.5t-60 -170.5zM849 1797q-11 -5 -19 -13.5 t-19 -16.5l-9.5 -9.5l-9.5 -9.5t-9.5 -8t-9.5 -9q-5 -5 -9.5 -9t-9.5 -10q-5 -5 -9.5 -8t-9.5 -8q-11 -11 -19.5 -20.5t-19.5 -17.5q-38 -38 -73.5 -80.5t-70.5 -86.5q-71 -87 -128.5 -181.5t-101.5 -184.5q-22 -46 -39.5 -88.5t-31.5 -83.5q-14 -38 -24.5 -73.5 t-18.5 -65.5q-5 -30 -11 -54.5t-9 -41.5q-3 -8 -2.5 -15t-2.5 -12v-8q5 19 9.5 35.5t9.5 32.5q0 8 6 19q0 5 5 16q0 5 5 17q0 5 6 16q19 60 49 126q14 30 27.5 58.5t27.5 58.5t27.5 56t29.5 53q57 101 115 189q11 16 13 22q5 5 8 10.5t9 11.5q5 11 12 20.5t15 17.5 q5 11 13.5 20.5t13.5 17.5q5 11 13.5 19t14.5 17q5 11 13 19q3 5 6 8t5 8q8 8 25 30q14 14 24.5 29t21.5 28q14 14 23.5 25t17.5 22q11 14 19.5 22t16.5 19l16 16q3 5 11 14q5 8 10.5 13.5t11.5 10.5zM1445 1021q22 71 34 132.5t23 116.5q11 52 15 94t7 72q3 14 2.5 25 t-0.5 19v14v2q-3 -16 -4 -31t-4 -31q0 -8 -5 -30q0 -11 -3 -14q0 -11 -3 -16q-5 -30 -12 -59t-12 -59q-14 -60 -30.5 -116t-35.5 -111q-5 -14 -9 -26t-10 -25q-3 -11 -8 -28q-3 -5 -4.5 -13.5t-3.5 -13.5q-5 -8 -11 -25q-3 -5 -3 -6.5t-3 -6.5q0 -5 -1 -6.5t-1 -7.5 q-5 -14 -11 -26t-11 -26q-19 -49 -38.5 -98t-40.5 -96q-41 -96 -83.5 -183t-80.5 -166q-5 -11 -11 -19.5t-11 -18.5q-5 -14 -11 -20q-3 -8 -8 -19q-11 -22 -20.5 -39.5t-20.5 -36.5q-5 -8 -9.5 -17.5t-9.5 -18.5q-5 -8 -9.5 -16t-9.5 -19q-11 -22 -20 -33l-8 -16 q-5 -11 -11 -17q-8 -16 -16 -32.5t-19 -32.5q-5 -11 -8 -14l-9 -16q-5 -8 -7.5 -15t-8.5 -15q-8 -14 -16 -27.5t-17 -27.5q-5 -11 -8 -14q-5 -11 -8 -13q-11 -16 -16 -27q-5 -14 -13.5 -25t-14.5 -22q-11 -16 -13 -24q-5 -5 -8 -11t-6 -11q-14 -22 -25 -41t-24 -36 q-11 -19 -20.5 -34t-17.5 -29t-15 -24.5t-13 -18.5q-5 -11 -9 -16.5t-7 -11.5l-6 -11q14 16 26.5 34t25.5 35q14 19 27.5 36.5t27.5 34.5q14 19 26 36.5t26 39.5q5 8 12 18t15 18q5 11 12 20.5t13 17.5q5 11 13.5 20.5t13.5 20.5l5 8l6 11q8 8 14 19q14 22 26 41t25 38 l50 82l13 22l11 19l25 44q46 82 91 166.5t86 169.5t76.5 168t65.5 165q61 155 99 300zM2176 311q11 49 25 99.5t30 102.5l74 213q38 106 79 210t74 200l16 49q3 5 8 22q3 5 3 10.5t3 11.5q8 25 12 46.5t9 43.5q22 87 14 150q0 16 -2.5 30t-5.5 27q-8 22 -22 41q-3 5 -8 11 q-8 8 -11 9l-5 5h-3h3l2 -3l3 -2q3 0 3 -3q3 -3 5 -3q5 -11 11 -16q5 -8 6.5 -16.5t7.5 -19.5q3 -8 2.5 -16t2.5 -19v-3v-6v-8v-19q-3 -35 -8 -68t-14 -66q-11 -33 -20.5 -64t-20.5 -61q-14 -30 -24.5 -59t-21.5 -59q-22 -57 -42.5 -110t-39.5 -105q-19 -49 -35.5 -95.5 t-29.5 -90.5q-27 -87 -44 -155.5t-25 -114.5q0 -14 -1 -23.5t-4 -20.5v-3v-5q0 -5 -3 -8v-14q-3 -8 -3 -19v-6z" />
<glyph unicode="O" horiz-adv-x="2331" d="M2179 2073q76 -30 125.5 -90.5t78 -138t38 -169t9.5 -181.5q-3 -213 -54 -465q-90 -380 -213 -652.5t-254 -462.5t-262 -306t-238 -181l-25 -17q-24 -16 -69 -36.5t-108 -44t-139 -36.5q-63 -14 -132.5 -16.5t-143.5 5.5q-235 25 -377 106.5t-215.5 202t-88.5 265 t4 291.5q44 347 256 771q104 197 217.5 349.5t226.5 271.5t222.5 206t204.5 147q14 8 34.5 16.5t42.5 12.5t42.5 0t33.5 -23q14 -22 14 -44q101 76 206 129.5t206 82t192.5 31.5t165.5 -24zM909 939q0 38 5.5 75t11.5 70q5 33 13.5 60t13.5 49q5 11 6.5 19.5t4.5 13.5 q0 3 1.5 4.5t1.5 3.5q0 3 2 3q-52 -87 -71 -172t-8 -147q0 -11 3 -17q0 -8 3 -14q0 -5 1 -6.5t1 -6.5q3 -3 3 -5.5t3 -5.5v-6q3 -3 3 -5l5 -11l8 -16q3 -5 4.5 -7t3.5 -7q3 0 3 -1.5t3 -1.5q0 -3 3 -5l5 -6q-8 14 -13.5 32t-10.5 34q-9 35 -9 76zM317 653 q-98 -262 -129 -497q-14 -101 -11 -205t29 -199.5t82 -177.5t152 -137q-128 109 -183 284q-25 74 -36 172.5t1.5 220t53.5 267.5t120 321q106 232 252.5 434t282.5 352q158 175 325 322q-183 -134 -355 -308q-74 -74 -153 -165.5t-157 -198t-147.5 -229t-126.5 -256.5z M912 1240q8 22 20.5 43.5t25.5 43.5q14 25 28 47q-112 -131 -207.5 -262.5t-158.5 -254.5q-188 -363 -245.5 -629t-14 -442t170.5 -265t305 -100q147 -8 270 27q93 30 179 90.5t163.5 138t144.5 167.5t125 178q131 208 237 450q161 393 231 667.5t79.5 449.5t-26 262.5 t-87.5 106.5q-38 14 -119 5.5t-183 -46.5t-217 -108t-216 -179q-112 -120 -177.5 -222.5t-100.5 -178.5q-16 -41 -37 -121.5t-21 -195.5q0 -14 -1 -42.5t-9.5 -58.5t-23.5 -57.5t-42 -38.5q-55 -27 -100 21t-58 141q-8 76 8 170.5t57 192.5zM2373 1562v11q-3 3 -3 5v-31 t-3 -31q-3 -14 -2.5 -30.5t-2.5 -30.5q-5 -30 -8 -60t-8 -60q-11 -60 -20.5 -116t-23.5 -113q-27 -112 -57 -214.5t-63 -197.5q-35 -96 -73.5 -184.5t-76.5 -168.5q-19 -38 -38.5 -76t-38.5 -74q-11 -19 -20.5 -36.5t-20.5 -34.5q-5 -8 -9 -16t-10 -17q-5 -8 -9.5 -16 t-9.5 -16q-11 -16 -20.5 -31.5t-17.5 -28.5q-14 -16 -19 -30q-5 -5 -9.5 -13.5t-9.5 -14.5q-5 -8 -9.5 -15t-10.5 -12q-11 -16 -19 -27l-16 -25l-16 -25q-71 -96 -123 -155q-14 -16 -25 -28.5t-22 -26.5q-22 -25 -33 -41l-30 -30q33 27 64.5 57.5t61.5 62.5q30 33 61.5 66 t61.5 71q30 35 57.5 73.5t57.5 76.5q52 71 103 158q49 82 93 167t82 172t67 170.5t53 165.5q25 82 41.5 159.5t29.5 148.5q14 71 22 134t14 118q8 106 8 166v44z" />
<glyph unicode="P" horiz-adv-x="2075" d="M2078 2007q90 -60 158 -150q57 -76 95.5 -191t14.5 -271q-33 -197 -149 -374t-273 -305.5t-333.5 -196.5t-328.5 -47q-52 5 -92 17.5t-70 23.5q-109 -311 -148.5 -509t-36.5 -314t37 -168t77.5 -72.5t83 -27t53.5 -31.5q22 -38 -7 -62.5t-59 -35.5q-22 -5 -42 -6.5 t-39 0.5l-44 6q-117 35 -181.5 122.5t-89 207.5t-12 269t49 310t91 325t117.5 317q90 224 157 367t114 231q52 98 92 153q27 35 58 60q27 22 65.5 35.5t87.5 5.5q46 -8 76 -30q25 -19 33 -50.5t-30 -86.5l-14 -13q-5 -5 -13.5 -15t-16.5 -16q-8 -8 -38 -42t-82 -124 t-125.5 -252.5t-169.5 -424.5q98 -33 245.5 12t344.5 209q131 112 214.5 233.5t129.5 225.5q55 120 82 237q22 104 13.5 167t-29.5 95q-25 38 -66 55q-79 44 -236 30t-351 -85t-400 -198t-381 -310q-156 -161 -235 -297.5t-117 -239.5q-44 -120 -47 -219q-8 -44 -24 -74 q-14 -25 -42.5 -34t-72.5 23q-46 33 -64 119t4 205t89 262t187 294q90 112 215.5 228t271.5 218.5t306 180t318.5 113t305.5 19t273 -103.5zM918 1688q169 115 324.5 185.5t278.5 111.5q142 49 265 71q-227 -22 -415.5 -84.5t-342.5 -152.5t-274 -196.5t-211 -213.5 q-213 -251 -333 -560q79 156 186 306q90 131 220 274.5t302 258.5zM997 677q5 22 13.5 42.5t16.5 42.5q5 11 6.5 20.5t6.5 20.5l17 41q11 27 13 41q5 11 17 38q8 19 15 38t15 38q3 16 13 36q5 14 17 35q3 14 14 36q5 8 6.5 16t6.5 17q14 35 27.5 65t27.5 60l24 58l25 49 q25 49 44 87t32 63q8 14 12.5 24.5t9.5 16.5l3 5q0 3 3 3q3 3 2 6q-19 -27 -35 -53.5t-33 -53.5q-11 -16 -13 -24q-5 -11 -17 -28q-5 -5 -8 -13.5t-8 -13.5q-3 -5 -5.5 -12t-8.5 -15q-30 -52 -57.5 -104t-51.5 -107q-96 -205 -172 -407q-5 -14 -9.5 -24.5t-9.5 -24.5 t-9.5 -23t-9.5 -23l-17 -49q-5 -11 -8 -22t-8 -25q-5 -11 -8 -21.5t-9 -24.5q-5 -11 -6.5 -22t-6.5 -22q-5 -16 -8 -22q-3 -5 -3 -12t-3 -12q-11 -25 -13 -44q-14 -44 -25 -86t-19 -83q-11 -41 -18 -80.5t-12 -78.5q-5 -27 -6 -38q-3 -11 -2.5 -19t-2.5 -19q0 -11 -3 -16 v-20q0 -5 -1.5 -7.5t-1.5 -8.5v-16q-3 -35 -4 -68t2 -63t4 -57.5t7 -52.5q11 -55 24 -90q14 -35 33 -68q11 -16 16 -22q3 -5 9 -11q3 0 2 -2l6 -6q5 -5 5 -8q3 0 8 -6q3 0 3 -1t3 -1l5 -6q3 -3 6 -3l2 -2q-30 27 -51 65q-14 19 -21 39.5t-12 42.5q-11 41 -17 88q0 16 -2 21 v14v11v22v24v22v25q0 11 1 22t1 24q0 5 1.5 11t1.5 11t1.5 12t1.5 13q0 14 1.5 23t3.5 23q5 46 15 94t21 95q22 96 48 187t56 178q5 14 6.5 23.5t6.5 20.5q5 14 8 23.5t9 23.5q11 38 30 84zM1737 664q183 85 292 213t166 251q68 142 93 295q-55 -194 -147.5 -336 t-182.5 -238q-106 -109 -221 -185z" />
<glyph unicode="Q" horiz-adv-x="2523" d="M2643 1029q-82 -344 -189.5 -599t-226.5 -441t-239 -308.5t-227 -199.5q142 -82 270.5 -185.5t216 -228t119 -266.5t-26.5 -303l-22 -44q-11 -19 -26 -40.5t-36 -35.5q-30 -22 -70 -24.5t-59 27.5q-14 22 12 65.5t51 109t29 151.5t-52 188.5t-192.5 222.5t-390.5 257 q-46 -22 -108 -45.5t-141 -36.5q-63 -14 -132.5 -16.5t-143.5 5.5q-150 14 -260.5 53.5t-189.5 99.5t-128.5 135t-73.5 160q-123 -5 -180.5 -37t-70.5 -48q-30 -30 -55 -26t-41 26t-21.5 45t-8.5 45q-3 25 3 49q16 115 107.5 158.5t230.5 38.5q0 167 41 334.5t93 301.5 q57 156 134 301q104 197 217 349.5t226.5 271.5t222.5 206t205 147q14 8 34.5 16.5t42 12.5t42 0t34.5 -23q14 -22 14 -44q101 76 206 129.5t206 82t192.5 31.5t165.5 -24q76 -30 125 -90.5t78 -138t38.5 -169t9.5 -181.5q-3 -214 -55 -465zM584 653q-98 -262 -128 -497 q-14 -101 -11 -205t29 -199.5t82 -177.5t151 -137q-128 109 -183 284q-25 74 -35.5 172.5t1.5 220t53 267.5t121 321q106 232 252 434t283 352q158 175 325 322q-183 -134 -355 -308q-74 -74 -153 -165.5t-157 -198t-148 -229t-127 -256.5zM1374 -552q11 3 19 6t16 5 q-68 33 -142 66t-158 65q-139 49 -251.5 79.5t-204.5 43.5q55 -139 173.5 -211.5t276.5 -80.5q148 -8 271 27zM1903 -688q-46 35 -95 68t-101 66q-11 5 -14 8q-38 22 -73.5 41t-73.5 38q-145 76 -295 137q-104 41 -195.5 71t-162.5 51q-33 11 -60 18t-47 13q-11 3 -16 2.5 t-11 2.5q-5 0 -11 3q38 -11 76.5 -23.5t76.5 -25.5q38 -14 75 -26.5t73 -25.5q71 -30 137.5 -56t129.5 -56q55 -25 107 -49.5t101 -49.5q44 -22 83.5 -43.5t77.5 -43.5q14 -8 27.5 -16.5t26.5 -13.5q22 -14 41.5 -26t38.5 -26q16 -14 35 -22l33 -24q16 -11 31 -20.5 t29 -20.5t24.5 -19.5t24.5 -16.5q11 -8 19 -16t17 -14q22 -16 27 -22q5 -5 9.5 -8t6.5 -5l6 -6q-74 80 -178 156zM1185 1248q19 41 41 82q11 22 27 44q-112 -131 -207.5 -262.5t-158.5 -254.5q-153 -289 -217 -514.5t-61 -397.5q109 -25 224 -60t221.5 -76t202 -82 t168.5 -74q22 -11 33 -13q33 -16 67 -33l72 -36q142 109 257 263.5t197 296.5q96 167 172 341q161 393 230.5 667.5t79 449.5t-26 262.5t-84.5 106.5q-38 14 -120 5.5t-184.5 -46.5t-217 -108t-215.5 -179q-112 -120 -177.5 -222.5t-98.5 -178.5q-19 -41 -39.5 -121.5 t-20.5 -195.5q0 -14 -1.5 -41t-9.5 -58.5t-23 -59t-43 -38.5q-55 -27 -99.5 21t-58.5 141q-8 79 8.5 176t62.5 195zM1177 939q0 38 5.5 75t10.5 70q11 66 30 109q3 11 6 19.5t3 13.5q0 3 1 4.5t1 3.5q0 3 3 3q-52 -87 -69.5 -172t-9.5 -147q0 -5 1.5 -8t1.5 -9q0 -8 2 -14 q0 -5 1.5 -6.5t1.5 -6.5q3 -3 3 -5.5t2 -5.5v-6q3 -3 3 -5q5 -11 6 -11l8 -16q3 -5 4 -7t4 -7q3 0 3 -1.5t2 -1.5q0 -3 3 -5l6 -6q-8 14 -13.5 32t-11.5 34q-8 35 -8 76zM1764 -448q33 27 64.5 57.5t61.5 62.5q30 33 61 66t62 71q30 35 57 73.5t57 76.5q52 71 104 158 q49 82 92.5 167t82.5 172q38 87 66.5 170.5t53.5 165.5t42.5 159.5t31.5 148.5t20.5 134t11.5 118q8 106 9 166v44v11v5q-3 -16 -3 -31t-3 -31q-3 -14 -3 -30.5t-2 -30.5q-5 -30 -8 -60t-9 -60q-8 -60 -19 -116t-24 -113q-25 -112 -55 -214.5t-66 -197.5q-71 -194 -147 -353 q-22 -38 -41 -76t-38 -74q-11 -19 -20.5 -36.5t-20.5 -34.5q-5 -8 -9.5 -16t-9.5 -17q-5 -8 -9.5 -16t-9.5 -16q-11 -16 -20.5 -31.5t-18.5 -28.5q-14 -16 -19 -30q-5 -5 -9 -13.5t-10 -14.5q-5 -8 -9.5 -15t-9.5 -12q-11 -16 -16 -27q-8 -8 -19 -25l-17 -25 q-71 -96 -123 -155q-14 -16 -24.5 -28.5t-21.5 -26.5q-22 -25 -33 -41z" />
<glyph unicode="R" horiz-adv-x="2069" d="M2343 1395q-27 -161 -109 -307t-199.5 -266t-255.5 -206t-274 -122q60 -38 110.5 -99.5t80.5 -162.5q96 -303 229.5 -501t330.5 -253q25 -5 40 -16q14 -11 25 -27.5t8 -40.5q-5 -35 -62.5 -72t-143.5 -45.5t-185.5 31t-187.5 154.5q-63 76 -109 188t-79 216t-50.5 180.5 t-17.5 81.5q0 3 -1.5 4.5t-1.5 6.5q-25 104 -74 168t-107.5 97t-121.5 41t-115 3q-98 -292 -133.5 -478t-30 -295t41 -158t79 -69.5t82 -26t51.5 -30.5q22 -38 -6.5 -62.5t-58.5 -35.5q-22 -5 -44 -6.5t-41 0.5q-22 3 -41 6q-117 35 -182.5 122.5t-89 207.5t-11 269 t49.5 310t91.5 325t117.5 317q90 224 156.5 367t113.5 231q52 98 90 153q25 35 57 60q27 22 67 35.5t86 5.5q49 -8 79 -30q25 -19 33 -50.5t-30 -86.5l-13 -13q-5 -5 -13.5 -15t-17.5 -16q-8 -8 -39.5 -42t-82 -124t-124 -252.5t-169.5 -424.5q98 -33 246 12t344 209 q131 112 214.5 233.5t129.5 225.5q55 120 82 237q22 104 14 167t-30 95q-25 38 -66 55q-79 44 -236 30t-351 -85t-400 -198t-381 -310q-156 -161 -235 -297.5t-117 -239.5q-44 -120 -46 -219q-8 -44 -25 -74q-14 -25 -42.5 -34t-72.5 23q-46 33 -64 119t4 205t89 262 t187 294q90 112 215.5 228t272 218.5t306 180t318 113t306 19t272.5 -103.5q90 -60 159 -150q57 -76 95.5 -191t13.5 -271zM915 1688q169 115 324.5 185.5t278.5 111.5q142 49 265 71q-227 -22 -415 -84.5t-342.5 -152.5t-274.5 -196.5t-210 -213.5q-213 -251 -333 -560 q79 156 185 306q90 131 220 274.5t302 258.5zM991 677q8 22 16.5 42.5t16.5 42.5q3 14 14 41l16 41q5 11 6.5 20.5t7.5 20.5q5 11 16 38q11 35 30 76q3 16 14 36q5 11 8 19t5 16q5 14 17 36q3 11 13 33q14 35 27.5 65t27.5 60l25 58l24 49q22 49 42.5 87t34.5 63 q11 22 22 41l2 5q0 3 3 3q3 3 3 6q-19 -27 -35.5 -53.5t-33.5 -53.5l-16 -24q-5 -8 -6.5 -15t-7.5 -13q-5 -5 -8 -13.5t-8 -13.5t-6.5 -12t-7.5 -15q-30 -52 -57 -104t-52 -107q-52 -104 -94 -206t-81 -201l-16 -49q-11 -22 -19 -46l-16 -49q-5 -11 -8 -22t-9 -25 q-5 -11 -8 -21.5t-8 -24.5q-11 -25 -14 -44q-5 -16 -8 -22q-5 -16 -6 -24q-11 -25 -13 -44q-14 -44 -25 -86t-19 -83q-11 -41 -19 -80.5t-14 -78.5q0 -16 -5 -38q0 -11 -1.5 -19t-1.5 -19q0 -5 -1.5 -8t-1.5 -8v-20q-3 -5 -2 -16v-16q-8 -63 -3 -131q0 -30 2.5 -57.5 t8.5 -52.5q8 -55 24 -90q5 -22 15 -38t18 -30q11 -16 17 -22q3 -5 8 -11l3 -2l5 -6q3 -3 3 -4t2 -4q3 0 9 -6l5 -2l6 -6q3 -3 5 -3l3 -2q-35 30 -55 65q-11 19 -17.5 39.5t-12.5 42.5q-11 41 -16 88q0 16 -3 21v14v11q0 14 -3 22v24q0 5 1.5 11t1.5 11v25v22t3 24q0 14 2 22 q0 16 3 25q0 14 1.5 23t4.5 23q5 46 13 94t22 95q22 96 48 187t56 178q3 14 5.5 23.5t8.5 20.5q5 14 7.5 23.5t5.5 23.5q19 46 30 84zM1551 156q0 8 -5 19q-25 76 -58 131q-14 25 -28.5 44t-25.5 30q-5 5 -9 5l-5 5l-3 3q-3 3 -5 3l-6 5h-2q11 -5 16 -11l5 -5l6 -5 q5 -5 5 -9q5 -5 6 -5q3 -5 11 -14q22 -30 32 -60q30 -63 47 -120q0 -5 1.5 -8t1.5 -8q3 -5 2.5 -8t2.5 -9q3 -8 8 -30q5 -14 6.5 -28.5t7.5 -31.5q8 -30 16.5 -57t13.5 -58q16 -55 34 -106.5t37 -97.5q41 -98 85 -167q46 -74 95 -117q46 -41 93 -66l3 -3q5 0 5 -2 q5 0 6.5 -1.5t4.5 -1.5l17 -8q5 0 8 -3h8q3 -3 5 -3q5 0 9 -2h8q3 -3 8 -3h5q-52 14 -87 35q-11 8 -20.5 15t-20.5 15t-19 16.5t-19 16.5q-35 38 -64 82t-54 90q-49 93 -81 194q-19 46 -34.5 94t-28.5 94q-5 22 -12 44t-13 44q-3 14 -5.5 23.5t-5.5 20.5q-3 5 -4 9.5t-4 9.5 zM1734 664q183 85 292 213t167 251q68 142 93 295q-55 -194 -148 -336t-183 -238q-106 -109 -221 -185z" />
<glyph unicode="S" horiz-adv-x="1922" d="M1502 530q41 38 99.5 151.5t108 267.5t79.5 333t16 348q-5 66 -25 123q-16 49 -49 95.5t-87 65.5q-38 11 -87.5 5.5t-112 -47.5t-139 -129.5t-164.5 -243.5q-109 -229 -147 -459q-16 -98 -19 -204.5t19 -213t74 -210t142 -194.5q19 -22 51.5 -47.5t62.5 -47.5 q3 0 41.5 -27.5t91.5 -74t111.5 -106.5t104 -129.5t67 -143t-0.5 -144.5q-30 -90 -101 -135.5t-147 -64.5q-90 -22 -194 -16q-199 0 -399 30q-85 14 -177.5 34t-185.5 53t-183 76.5t-169 103.5t-112 132.5t5 160.5q8 22 22 41q14 16 30.5 32.5t40.5 29.5q25 11 56.5 11 t28.5 -41q-3 -71 38 -128t109.5 -103.5t155.5 -82t180 -60.5q216 -60 492 -90q194 -14 280 -1.5t102 64.5q11 44 -8 94.5t-56 102t-87.5 99.5t-99.5 86q-38 27 -87.5 60t-90.5 60q-164 98 -262 217t-146 246t-54.5 255.5t12.5 248.5q44 279 207 571q71 117 147.5 214 t157 165.5t165.5 99.5t172 18q19 -3 76.5 -20.5t123 -78t124 -175t75.5 -311.5q14 -153 4 -284t-33 -240t-51.5 -192.5t-53.5 -137.5q-27 -57 -58.5 -112t-70 -93t-84.5 -58.5t-98 -9.5q-19 3 -33 13q-14 8 -25 20.5t-16 34.5q-3 16 0 30q6 30 41 63zM1412 -672q-14 3 -26 3 t-26 3q-14 0 -26 1t-26 1q-14 3 -26 3t-26 3h-14q-5 3 -13 3t-15 1t-13 1q-30 3 -55.5 6t-55.5 8q-27 5 -54.5 8t-57.5 8q-55 8 -109.5 19t-109.5 25t-105.5 29t-96.5 31t-90 34t-82 37t-71 37t-60 34q-25 16 -45.5 31.5t-33.5 26.5l-19 19q-3 0 -3 1t-3 1v3q5 -5 12 -13.5 t13 -13.5l24 -25q8 -5 15 -12t15 -12q5 -5 12 -11t16 -11q30 -22 58.5 -40t58.5 -34q30 -19 60 -32.5t60 -27.5t60 -25t60 -21q57 -22 113.5 -36t110.5 -25q5 -3 12 -2.5t13 -2.5q8 0 14 -3h13l49 -8q14 -3 25 -4t22 -4q5 0 12 -1.5t12 -1.5q16 0 22 -3q14 0 23.5 -1 t20.5 -1q8 -3 22 -3h19q14 -3 41 -3q8 -3 17.5 -2.5t17.5 0.5h33h16h17h54h11h11h19q14 3 33 2h25zM1147 1786q3 3 3 4t2 4q0 3 3 3q-16 -19 -32.5 -38.5t-30.5 -38.5l-57 -82q-14 -22 -26 -41t-26 -41q0 -3 -5 -8q-5 -11 -6 -11q-3 -5 -5.5 -10.5t-5.5 -10.5 q-5 -5 -6.5 -9.5t-6.5 -10.5q0 -5 -6 -11q0 -5 -5 -10q-22 -41 -41 -82t-36 -85q-16 -41 -30 -82t-24 -82q-19 -79 -33 -161q-5 -38 -8 -76.5t-3 -76.5q0 -27 3 -38q0 -25 2 -36q0 -11 1.5 -19t1.5 -16q0 -5 1.5 -9.5t1.5 -9.5q3 -5 3 -17q8 -33 16 -64t19 -61t23.5 -57.5 t25.5 -51.5q22 -44 55 -88q27 -38 54.5 -69.5t51.5 -53.5q22 -25 42.5 -41t34.5 -27q16 -11 19 -16q3 -3 5 -3l3 -3l-25 25l-24 24q-14 14 -25 27.5t-22 27.5q-14 14 -24.5 29t-21.5 28q-5 11 -11 14l-5 8l-3 8q-5 5 -11 17q-8 8 -11 13q-79 128 -112 276q-8 38 -13.5 75 t-5.5 75q-3 14 -3 39v35q3 5 3 11v8v19l3 9v5v5q0 11 2 17v19q3 5 3 19q3 5 3 19l3 8v9q3 11 4 19t1 16q3 14 8 36q8 35 16.5 69t19.5 67q3 8 5.5 16.5t5.5 16.5q3 5 4 13.5t7 16.5q0 5 5 16q0 3 6 14q0 5 5 16q0 8 6 14q5 16 10.5 30t10.5 27q5 8 7 15t7 15q3 5 5.5 12 t5.5 13q25 55 48 98.5t45 81.5q11 22 20.5 38.5t17.5 29.5q11 14 19 26.5t14 20.5q5 11 9.5 18t9.5 12zM1701 505q-3 -8 -8 -13q-3 -3 -3 -6q27 33 53 71t48 82q22 41 41 86t36 91q30 93 46 186q8 46 13.5 92.5t8.5 90.5q5 87 2.5 159.5t-7.5 127.5q-3 30 -6 50.5t-5 33.5 q-5 22 -6 22v9q3 -30 4.5 -61.5t1.5 -61.5v-59t-3 -59q0 -30 -1.5 -57t-4.5 -55q-3 -14 -4 -27.5t-1 -26.5q-3 -8 -3 -28q-3 -5 -2.5 -12t-2.5 -12q-14 -104 -34.5 -191.5t-42.5 -158.5q-14 -38 -24.5 -68t-21.5 -57q-5 -8 -6.5 -15t-7.5 -13q-5 -16 -11 -24q-3 -5 -8 -22 q-8 -8 -11 -19l-8 -17q-5 -11 -8 -13q-5 -8 -8 -14t-6 -11z" />
<glyph unicode="T" horiz-adv-x="1419" d="M1638 1759q11 14 22 27q22 25 47 46q30 25 77.5 49.5t110.5 21.5q22 0 41 -5q16 -5 30 -15t19 -29q147 35 297.5 64t290 42.5t262 9.5t215.5 -28.5t149 -73.5t61 -126q0 -25 -2 -49q-5 -22 -12 -44t-24 -43q-16 -22 -39.5 -23.5t-53.5 28.5q-25 25 -125.5 51t-271.5 34 t-404.5 -11t-522.5 -88q-96 -137 -197 -315.5t-185 -342.5q-98 -191 -194 -387q-145 -289 -231 -495.5t-124 -354.5q-55 -208 -66 -312.5t-4 -151t20.5 -59t11.5 -31.5q-5 -22 -17.5 -33t-26.5 -16q-16 -5 -33 -6q-49 3 -79 33t-45 76.5t-19 104t-2 117.5q8 139 52 314 q44 208 138 449.5t209 480.5t238 457t221 380q-265 -98 -441 -192.5t-284 -183.5t-158.5 -169.5t-64 -152.5t-1.5 -133.5t31 -109.5t33 -80.5t3 -49.5q-22 -30 -61.5 -24.5t-69.5 30.5q-22 16 -35.5 38t-22.5 41q-11 22 -16 46q-41 142 -16.5 265t94 231t176 198 t228.5 163.5t250 131t243 101.5q3 3 4 3t4 2q60 25 128 49.5t142 49.5zM1098 1455q5 3 9 4.5t10 4.5q8 5 19 11q22 8 39.5 17.5t34.5 17.5q142 66 221 98q22 8 35.5 13.5t24.5 11.5q5 3 9.5 3t6.5 2q3 0 6 3q-27 -5 -44 -11q-5 -3 -10.5 -3t-11.5 -2q-5 -3 -11 -3l-11 -5 q-22 -5 -45 -12.5t-45 -15.5q-46 -16 -92.5 -34t-92.5 -37l-22 -11q-5 -3 -11 -5.5t-11 -5.5q-14 -5 -23.5 -10.5t-23.5 -10.5q-22 -8 -43 -22q-5 -3 -11 -5.5t-11 -5.5q-5 -5 -22 -11q-41 -25 -80.5 -49.5t-77.5 -48.5q-38 -27 -69.5 -52t-61.5 -52q-27 -25 -50.5 -48 t-42.5 -45t-31.5 -38.5t-23.5 -29.5q-5 -8 -11 -19q-3 -3 -2 -6q0 -3 -3 -3q5 8 10.5 15t11.5 13q3 3 4 5.5t4 5.5l11 11q14 14 23.5 24.5t22.5 21.5q44 38 93 76q46 38 92.5 68.5t93.5 57.5q46 27 88.5 50.5t83.5 45.5q11 8 22 11q5 3 9.5 5t9.5 5zM1499 1404 q-123 -197 -229 -385q-55 -93 -101.5 -183.5t-89.5 -177.5q-172 -347 -265 -617q-22 -68 -41 -128t-33 -115q-5 -27 -10.5 -52t-11.5 -49q-3 -11 -4 -22t-4 -22q0 -5 -1.5 -9t-1.5 -10q0 -5 -1 -10.5t-1 -11.5q-5 -38 -7 -66.5t-2 -47.5v-30v-11q3 22 4.5 39.5t4.5 39.5 l16 82q5 22 9.5 41t9.5 41l25 82q52 161 120 330q35 82 69.5 164t69.5 161q38 79 72 155.5t70 147.5q68 145 128 266.5t107 208.5q44 90 74 139zM3209 1712q5 33 -9 66q-14 35 -38 60q-14 14 -29 23.5t-28 17.5q-35 19 -63 22q-30 8 -57.5 10.5t-46.5 2.5h-30h-8h-3 q11 -3 22 -4t22 -4l41 -8q22 -5 39.5 -11t34.5 -11q16 -8 31 -15t29 -15t24.5 -16.5t18.5 -19.5q19 -19 27.5 -36.5t13.5 -31.5l4.5 -12t1.5 -10q0 -3 3 -5v-3z" />
<glyph unicode="U" horiz-adv-x="2441" d="M2845 2067q49 -8 80 -30q25 -19 33 -50.5t-31 -83.5l-13 -13q-5 -5 -13.5 -15t-16.5 -15q-8 -8 -39.5 -44t-83.5 -128.5t-127 -258t-171 -435.5q-93 -257 -143.5 -441t-69.5 -314t-11 -209t31.5 -125.5t56 -67t65.5 -31.5t60 -16.5t38 -24.5q22 -38 -6.5 -64t-58.5 -37 q-22 -5 -44 -6.5t-41 1.5q-22 3 -41 8q-85 25 -140.5 78t-90 125.5t-46.5 162.5t-7 194q-106 -172 -234.5 -345.5t-265 -310t-273 -217t-259.5 -72.5q-76 5 -125.5 27t-84.5 52q-68 55 -65.5 150.5t32.5 190.5q33 109 101 235q79 139 173.5 331.5t197.5 449.5 q96 240 154.5 422t86 315.5t30 223.5t-11 147.5t-40.5 89t-57 47.5q-55 27 -109.5 15t-101.5 -34q-52 -30 -104 -71q-87 -74 -174.5 -187t-168 -241.5t-151.5 -263.5t-123 -251t-80.5 -205t-25.5 -127q3 -27 -4 -45t-13 -29q-11 -14 -19 -22q-22 -14 -39.5 -13.5t-31.5 5.5 q-16 5 -30 14q-46 30 -65 75t-19 99.5t16 114.5t38 121q19 57 68.5 169t131.5 250t198 285t274 279q98 85 185.5 131t161.5 64t134 13.5t105 -18t72 -30t38 -24.5q82 -60 120.5 -159.5t39.5 -228t-26 -278.5t-75 -310t-112 -324t-132 -319q-87 -197 -161 -345.5t-134 -263.5 q-19 -38 -33 -68t-27.5 -57.5t-18.5 -49.5q-14 -35 -19.5 -70.5t-1.5 -65.5t22 -50.5t56 -26.5q66 -11 156 43.5t191 158.5t208.5 250t213 318t199.5 366t171 393q22 68 47.5 134t53.5 131q90 224 157 367.5t113 230.5q52 98 90 153q25 35 57 60q27 22 67 35.5t86 5.5z M849 1819q-11 -5 -19 -13.5t-19 -16.5l-9.5 -9.5t-9.5 -10.5q-5 -5 -9.5 -7.5t-9.5 -8.5l-9.5 -9.5l-9.5 -9.5t-9.5 -8t-9.5 -8q-11 -11 -19.5 -20.5t-19.5 -18.5q-38 -38 -75 -80.5t-69 -85.5q-71 -87 -128.5 -181.5t-101.5 -184.5q-22 -46 -39.5 -88.5t-31.5 -83.5 q-14 -38 -24.5 -73.5t-18.5 -65.5q-5 -30 -11 -55t-9 -41q-3 -8 -2.5 -15t-2.5 -12v-8q5 19 9.5 35t9.5 33q0 8 6 19q0 5 5 16q0 5 5 17q0 5 6 16q19 60 49 126q14 30 27.5 58.5t27.5 58.5t27.5 56t29.5 53q57 101 115 189q11 16 13 22q5 5 8 10.5t9 10.5q5 11 12 20.5 t15 18.5q5 11 13.5 20.5t13.5 17.5q5 11 13.5 19t14.5 16q5 11 13 19q3 5 6 8t5 9q8 8 25 30q14 14 24.5 29t21.5 28q14 14 23.5 25t17.5 22q11 14 19.5 22t16.5 19l16 16q3 5 11 14q5 8 10.5 13.5t11.5 10.5zM909 -82q-3 -3 -2 -5q19 27 36.5 54.5t36.5 57.5q8 14 16.5 30 t16.5 30l6 8l5 8q3 3 8 14l17 32q5 8 7.5 15t8.5 15l16 33l33 66l33 65l33 66q8 16 16 32.5t14 32.5q11 22 16 36q11 22 14 33l57 131l16 33l6 16t5 16q8 16 15 32.5t13 33.5l24 65q3 5 5.5 13.5t5.5 16.5t5.5 16.5t5.5 13.5q5 16 10.5 31.5t11.5 31.5q5 14 9.5 29t9.5 31 q0 3 1.5 5.5t1.5 8.5q3 5 3 6.5t2 7.5q3 11 8 27q3 8 4.5 15t4.5 15q3 5 2.5 12t2.5 15l8 25q5 16 6 27q5 14 6.5 25t4.5 24q5 22 9 44t10 44q11 79 16 128q0 14 3 19v14v11v2q-3 -25 -5.5 -48t-8.5 -47q-3 -5 -2.5 -11t-2.5 -11t-3 -10.5t-3 -11.5q-5 -27 -11 -46 q0 -5 -5 -22q0 -5 -6 -22q0 -5 -5 -22q-3 -5 -3 -10.5t-2 -11.5q-5 -11 -7 -20.5t-7 -22.5q-3 -11 -5.5 -20.5t-5.5 -20.5q-52 -161 -115 -314q-5 -8 -6.5 -18t-6.5 -18q-5 -11 -8 -19l-6 -16q-5 -8 -8 -18t-8 -18t-7 -16t-7 -19l-57 -131q-5 -14 -12.5 -30.5t-15.5 -29.5 q-5 -16 -12 -31.5t-12 -29.5q-27 -52 -49 -111q-14 -25 -25 -49.5t-22 -49.5q-5 -14 -9.5 -23.5t-9.5 -22.5q-5 -11 -10.5 -20.5t-11.5 -20.5q-11 -27 -19 -38q-5 -11 -8 -19.5t-8 -19.5q-8 -16 -16.5 -32.5t-13.5 -29.5q-11 -16 -14 -25q-5 -8 -11 -25q-5 -5 -6.5 -9 t-4.5 -10l-8 -16q-11 -17 -14 -22zM2739 1772q-5 -5 -8 -11q-5 -5 -9 -11l-5 -5l-5 -6q-3 -3 -4.5 -5.5t-4.5 -4.5q-3 -3 -4 -6t-4 -5q-3 -5 -8 -11q-3 -5 -4 -7t-4 -7q-3 -3 -4.5 -5.5t-3.5 -5.5l-17 -24l-16 -25q-5 -5 -17 -22q-3 -8 -13 -24q-5 -5 -6.5 -12.5t-7.5 -12.5 q-3 -5 -4 -6.5t-4 -7.5l-6 -11q-5 -14 -13 -24.5t-14 -24.5l-24 -49q-5 -5 -7 -12t-7 -13q-3 -5 -5.5 -10.5t-5.5 -10.5q-46 -98 -86 -194t-72 -186q-8 -25 -16.5 -48t-16.5 -45q-3 -5 -8 -22q0 -5 -6 -21q-11 -25 -13 -44q-5 -11 -8 -20.5t-6 -23.5q-3 -5 -4.5 -9t-3.5 -10 q0 -8 -3 -11q0 -5 -1.5 -6.5t-1.5 -4.5l-24 -82q-25 -82 -41.5 -158.5t-27.5 -147.5q-14 -71 -17.5 -135t-3.5 -119q3 -30 4 -55.5t6 -47.5q5 -25 9.5 -45.5t12.5 -39.5q11 -35 33 -60q8 -14 17.5 -22t18.5 -13q5 -3 6.5 -6t6.5 -3q5 -5 11 -5q3 -3 6 -3l2 -3q-16 8 -30 22 q-19 19 -27 30q0 3 -5 8q0 3 -1.5 4.5t-1.5 4.5l-6 11q-3 3 -2.5 4t-2.5 4v5l-3 3q0 5 -1.5 6.5t-1.5 4.5q-5 11 -5 19l-3 11l-2 8l-3 6v5l-3 11q0 14 -3 19v22q-3 22 -2.5 42.5t0.5 42.5q0 44 5.5 86t10.5 86q11 87 33 174q11 46 22 88.5t21 86.5q5 22 12.5 42.5t15.5 42.5 q3 11 5.5 20.5t5.5 20.5q11 27 13 41q5 22 12 42.5t13 41.5q11 27 14 41q5 8 6.5 18t6.5 21t6.5 20.5t7.5 20.5q3 5 3 9t2 10q3 5 4.5 9t4.5 10q5 22 12 39.5t12 36.5q55 150 108 276t100 213q25 46 43.5 79t35.5 55q5 5 6.5 10.5t6.5 11.5q5 11 9 13l8 8v3z" />
<glyph unicode="V" horiz-adv-x="2102" d="M3462 1906q8 -33 1.5 -69.5t-50.5 -39.5q-27 0 -53 31.5t-68.5 57t-109 25.5t-176 -68t-269 -223.5t-389.5 -439.5q-120 -145 -238.5 -305t-234.5 -321t-224 -319.5t-203.5 -301.5t-176 -268.5t-138.5 -221.5q-27 -46 -63 -79q-30 -30 -75 -54.5t-102 -27.5q-25 -3 -48 5 t-42 17q-22 11 -41 24q-46 41 -60 93t-14 85q0 68 24.5 144.5t54.5 139.5q33 74 77 147q79 139 172 331.5t196 449.5q96 240 154.5 422t87.5 315.5t31.5 223.5t-12.5 147.5t-41 89t-56 47.5q-55 27 -110.5 15t-102.5 -34q-55 -30 -104 -71q-87 -74 -174.5 -187t-168 -241.5 t-151.5 -263.5t-121.5 -251t-79 -205t-25.5 -127q0 -49 -20 -74q-11 -14 -19 -22q-19 -14 -36.5 -13.5t-31.5 5.5q-16 5 -30 14q-46 30 -65.5 75t-19.5 99.5t15 114.5t37 121q19 57 68.5 169t131.5 250t199 285t276 279q98 85 185.5 131t161 64t133.5 13.5t104 -18t71 -30 t38 -24.5q82 -60 120.5 -159.5t41 -228t-24.5 -278.5t-76.5 -310t-113.5 -324t-132 -319q-87 -197 -159.5 -345.5t-135.5 -263.5q-25 -41 -44 -79q-16 -33 -34 -67t-23 -53q-19 -46 -23.5 -94t15.5 -79q38 68 106 187t157 269.5t190 319.5t207.5 338.5t211.5 325t198 281.5 q109 147 229 289t242 265t244.5 214.5t240 138t224 37t199.5 -91.5q14 -16 27 -33q11 -14 22 -31.5t16 -39.5zM849 1819q-8 -5 -17.5 -13.5t-20.5 -16.5q-8 -11 -19 -20q-11 -11 -19 -16l-19 -19q-5 -5 -9.5 -8t-9.5 -8q-16 -22 -39 -39q-38 -38 -73.5 -80.5t-70.5 -85.5 q-71 -87 -127 -181.5t-100 -184.5q-22 -46 -39.5 -88.5t-31.5 -83.5q-14 -38 -26 -73.5t-18 -65.5q-8 -30 -12 -55t-10 -41q-3 -8 -2.5 -15t0.5 -12q-3 -3 -3 -6v-2q5 19 9.5 35t9.5 33q3 5 3 9t3 10q3 5 2.5 8t2.5 8t3 8t2 9q3 5 3 8t3 8q14 33 24.5 64.5t24.5 61.5 t27.5 58.5t27.5 58.5t28.5 56t28.5 53q57 101 115 189q11 16 16 22q3 5 5.5 10.5t8.5 10.5q5 11 13.5 20.5t13.5 18.5q8 11 15 20.5t12 17.5q8 11 15 19t13 16q5 5 6.5 9.5t6.5 9.5q3 5 14 17q8 8 25 30q14 14 23 29t23 28q11 14 20.5 25t20.5 22q8 14 17.5 22t15.5 19 l16 16q5 5 6.5 8t7.5 6q5 8 9 13.5t10 10.5zM907 -87q19 27 36.5 54.5t36.5 57.5q8 14 16.5 30t19.5 30l3 8l5 8q3 3 8 14l17 32q5 8 7.5 15t8.5 15q8 11 19 33l33 66l33 65q8 16 14.5 32.5t15.5 33.5l32 65q5 8 7 16.5t7 19.5l16 33l58 131q3 11 13 33q5 8 7 16t7 16l25 66 l24 65q5 8 11 30q5 8 6.5 16.5t4.5 13.5q5 16 10.5 31.5t11.5 31.5q5 14 9.5 29t9.5 31q0 3 6 14q0 5 1 6.5t1 7.5q3 11 8 27q3 8 4.5 15t4.5 15q5 16 8 27q3 5 3 12t2 13q3 5 4.5 13.5t3.5 13.5q3 14 4.5 25t6.5 24q5 22 8 44t9 44q8 41 10.5 73.5t5.5 54.5q3 5 3 19v14v11 v2q-3 -25 -5.5 -48t-8.5 -47q-3 -5 -2.5 -11t-2.5 -11q0 -5 -1.5 -10.5t-1.5 -11.5q-5 -19 -11 -46q-5 -16 -5 -22q-5 -16 -6 -22q-3 -5 -4 -10.5t-4 -11.5q0 -5 -5 -22q-3 -11 -6 -20.5t-5 -22.5q-11 -27 -14 -41q-27 -85 -54.5 -163t-57.5 -151q-5 -8 -8 -18t-8 -18 q-5 -11 -7 -19t-7 -16q-11 -19 -14 -36q-11 -22 -16 -35l-57 -131q-5 -14 -12.5 -30.5t-12.5 -29.5q-8 -16 -15 -31.5t-12 -29.5q-14 -30 -25 -57t-24 -54q-14 -25 -23.5 -49.5t-23.5 -49.5q-5 -14 -9.5 -23.5t-9.5 -22.5q-5 -11 -9.5 -20.5t-9.5 -20.5t-9.5 -20.5 t-9.5 -17.5q-5 -11 -9.5 -19.5t-9.5 -19.5q-8 -16 -16.5 -32.5t-13.5 -29.5q-5 -5 -7 -12.5t-7 -12.5q-3 -5 -5.5 -12t-5.5 -13q-3 -5 -5.5 -9t-5.5 -10l-8 -16q-5 -5 -6.5 -10.5t-4.5 -11.5zM3042 1925q3 3 4 3t4 3q3 0 3 2q-55 -22 -107 -49q-5 -5 -12 -6.5t-12 -6.5 q-11 -5 -14 -9q-5 -3 -6.5 -4t-6.5 -4q-3 -3 -14 -8q-3 -3 -5.5 -4.5t-5.5 -3.5l-25 -17q-52 -38 -99.5 -76t-94.5 -82q-96 -87 -183 -181.5t-172 -192.5q-85 -101 -164 -202t-155 -205q-74 -104 -145 -203.5t-134 -195.5q-131 -194 -234.5 -360.5t-177.5 -291.5 q-38 -63 -66.5 -111t-48.5 -83q-11 -19 -17.5 -31.5t-12.5 -20.5q-8 -11 -11 -19q46 71 90 139t91 137q46 68 90 135t87 129q44 63 86.5 126t85.5 126q41 60 83.5 118.5t80.5 116.5q164 229 311.5 421.5t281.5 348.5q16 22 32.5 39.5t29.5 36.5q8 8 16.5 17.5t16.5 18.5 q8 8 15 16t15 19l17 16q5 5 6.5 8t6.5 9q8 5 15 13.5t15 16.5t15 16t15 14q5 8 13.5 15t14.5 15q30 27 56 53t50 48q5 3 6.5 5.5t7.5 5.5l11 11q8 8 24 19q8 8 25 19q5 8 22 19q5 5 22 17l2 2l6 6l11 5q8 8 19 14q5 5 9 6.5t10 7.5q5 3 8 5.5t8 4.5l17 9q5 5 8 6.5t5 4.5 q5 3 8 2.5t6 2.5q5 5 10.5 6.5t11.5 7.5q16 5 19 5z" />
<glyph unicode="W" horiz-adv-x="2998" d="M4377 1906q8 -33 1.5 -69.5t-50.5 -39.5q-27 0 -54.5 31.5t-69.5 57t-109 25.5t-176.5 -68t-269 -223.5t-389.5 -439.5q-177 -218 -356 -464t-340 -481t-296 -442.5t-223 -349.5q-30 -49 -65 -85q-30 -30 -75 -56t-97 -20q-106 11 -112 175q-3 68 16 178.5t72.5 274.5 t149 386.5t242.5 519.5q-284 -358 -551.5 -712.5t-474.5 -660.5q-33 -49 -71 -85q-33 -30 -78 -56t-97 -20q-30 0 -52 8t-38 16q-19 11 -33 22q-46 41 -60 93t-16 85q0 68 24.5 144.5t54.5 139.5q33 74 76 147q79 139 173.5 331.5t198.5 449.5q96 240 154.5 422t85.5 315.5 t30 223.5t-11 147.5t-41 89t-57 47.5q-55 27 -109.5 15t-101.5 -34q-52 -30 -103 -71q-85 -74 -174 -187t-169.5 -241.5t-151.5 -263.5t-122.5 -251t-80.5 -205t-26 -127q3 -27 -4 -45t-12 -29q-11 -14 -20 -22q-22 -14 -39.5 -13.5t-31.5 5.5q-16 5 -30 14q-46 30 -65 75 t-19 99.5t16.5 114.5t37.5 121q19 57 68.5 169t131.5 250t198 285t274 279q98 85 185.5 131t161.5 64t134 13.5t105 -18t72.5 -30t37.5 -24.5q82 -60 120.5 -159.5t40 -228t-26 -278.5t-75.5 -310t-112 -324t-132 -319q-87 -197 -161 -345.5t-134 -263.5q-25 -41 -44 -79 q-19 -33 -35.5 -67t-21.5 -53q-19 -46 -23 -94t15 -79q38 68 107.5 184.5t161 261t199.5 308.5t222.5 330.5t229.5 323.5t221 288q44 52 83.5 105.5t83.5 104.5q35 38 85.5 71t105.5 17q74 -22 84.5 -80.5t-21.5 -129.5q-41 -79 -100 -196.5t-124.5 -257t-133.5 -291 t-129.5 -297.5t-111 -278.5t-76.5 -233.5t-27 -162.5t35 -67.5q38 68 106.5 187t156 269.5t190 319.5t207.5 338.5t210 325t198 281.5q112 147 231 289t241.5 265t245.5 214.5t240.5 138t224 37t199.5 -91.5q14 -16 27 -33q11 -14 22 -31.5t16 -39.5zM868 1819 q-11 -5 -19 -13.5t-19 -16.5l-9.5 -9.5t-9.5 -10.5q-5 -5 -9.5 -7.5t-9.5 -8.5l-9.5 -9.5l-9.5 -9.5t-9.5 -8t-9.5 -8q-11 -11 -19.5 -20.5t-19.5 -18.5q-38 -38 -75 -80.5t-69 -85.5q-71 -87 -128.5 -181.5t-101.5 -184.5q-22 -46 -39.5 -88.5t-31.5 -83.5 q-14 -38 -24.5 -73.5t-18.5 -65.5q-5 -30 -11 -55t-8 -41q-3 -8 -3 -15t-3 -12v-8q5 19 9.5 35t9.5 33q0 8 6 19q0 5 5 16q0 5 6 17q0 5 5 16q19 60 49 126q14 30 27.5 58.5t27.5 58.5t27.5 56t29.5 53q57 101 115 189q11 16 13 22q5 5 8 10.5t9 10.5q5 11 12 20.5t15 18.5 q5 11 13.5 20.5t13.5 17.5q5 11 13.5 19t14.5 16q5 11 13 19q3 5 6 8t5 9q8 8 25 30q14 14 24.5 29t21.5 28q14 14 23.5 25t17.5 22q11 14 19.5 22t16.5 19q11 11 13 16l14 14q5 8 11 13.5t11 10.5zM928 -82q-3 -3 -2 -5q41 57 71 112q11 14 19 30t16 30l6 8l5 8q3 3 8 14 l17 32q5 8 8 15t8 15l16 33l33 66l33 65l33 66q8 16 15 32.5t15 32.5q11 22 16 36q11 22 14 33l57 131l17 33q3 8 5.5 16t4.5 16q8 16 15 32.5t13 33.5l24 65q3 5 6 13.5t5 16.5q3 8 5.5 16.5t5.5 13.5q5 16 11 31.5t11 31.5q5 14 9.5 29t9.5 31q0 3 1.5 5.5t1.5 8.5 q3 5 3 6.5t2 7.5q3 11 9 27q3 8 4 15t4 15q3 5 2.5 12t2.5 15l8 25q5 16 6 27q5 14 6.5 25t4.5 24q5 22 9 44t10 44q11 79 16 128v19q3 5 3 14v11v2q-3 -25 -5.5 -48t-8.5 -47q-3 -5 -2.5 -11t-2.5 -11t-3 -10.5t-3 -11.5q-5 -27 -10 -46q0 -5 -6 -22q0 -5 -5 -22 q0 -5 -6 -22q-3 -5 -3 -10.5t-2 -11.5q-5 -11 -7 -20.5t-7 -22.5q-3 -11 -5.5 -20.5t-5.5 -20.5q-52 -161 -115 -314q-5 -8 -6.5 -18t-6.5 -18q-5 -14 -17 -35q-5 -16 -13 -36q-5 -8 -6.5 -16t-7.5 -19l-57 -131q-5 -14 -12 -30.5t-16 -29.5q-5 -16 -12 -31.5t-12 -29.5 q-27 -52 -49 -111q-14 -25 -25 -49.5t-22 -49.5q-11 -22 -19 -46q-5 -11 -10.5 -20.5t-11.5 -20.5q-11 -27 -19 -38q-5 -11 -8 -19.5t-8 -19.5q-8 -16 -16.5 -32.5t-13.5 -29.5q-11 -16 -14 -25q-5 -8 -11 -25q-5 -5 -6.5 -9t-4.5 -10l-8 -16q-11 -17 -14 -22zM2075 969 q35 52 58 82q11 16 19 28q-87 -104 -180 -221.5t-183 -240.5q-87 -123 -172 -246t-159 -237q-76 -115 -136 -212t-107 -170q-22 -38 -37 -65.5t-28 -49.5l-25 -41q27 41 54.5 82t54.5 79t53 76.5t54 76.5q101 150 196 287q46 66 90 128.5t85 122.5q22 30 39.5 57t37.5 55 q22 30 38 54.5t35 49.5q35 49 65.5 92.5t57.5 81.5q14 19 25 37t24 34q27 38 41 60zM3954 1925q3 3 5.5 3t5.5 3q3 0 3 2q-55 -22 -107 -49q-5 -5 -13.5 -6.5t-13.5 -6.5q-3 -3 -5.5 -4.5t-5.5 -4.5q-11 -5 -14 -8q-5 -3 -6.5 -4t-6.5 -4q-3 -3 -14 -8l-25 -17l-98 -76 t-95 -82q-93 -87 -182 -181.5t-173 -192.5q-172 -205 -317 -407q-76 -104 -146 -203.5t-135 -195.5q-131 -194 -233.5 -360.5t-179.5 -291.5q-38 -63 -65.5 -111t-49.5 -83q-11 -19 -17.5 -31.5t-12.5 -20.5q-8 -11 -10 -19q46 71 91 139t91 137q46 68 89 135t89 129 q44 63 86 126t86 126q41 60 82 118.5t82 116.5q164 229 311.5 421.5t278.5 348.5q16 22 32.5 39.5t32.5 36.5q14 14 30 36q8 8 16.5 16t16.5 19q5 5 6.5 8t7.5 8l16 17q8 5 15 13.5t15 16.5q5 8 13.5 16t13.5 14l30 30q30 27 56 53t51 48l11 11q5 3 6.5 5.5t7.5 5.5 q8 8 24 19q14 14 22 19q5 5 10.5 9.5t11.5 9.5q16 11 22 17q3 0 2.5 1t2.5 1l6 6l10 5q11 11 20 14q5 5 8 6.5t8 7.5q5 3 9.5 5.5t9.5 4.5l16 9q3 5 14 11q5 3 6.5 2.5t7.5 2.5q5 5 10.5 6.5t11.5 7.5z" />
<glyph unicode="X" horiz-adv-x="1985" d="M2430 2021q120 -112 119 -269t-95.5 -334.5t-266.5 -364.5t-393 -357q-5 -66 -13.5 -132.5t-16.5 -129.5q-30 -213 -57.5 -376.5t-54.5 -292.5q-8 -46 -19 -87q-8 -35 -15 -72t-7 -57q-5 -52 4.5 -98t36.5 -74q3 -8 11 -13q16 -11 30 -11q16 0 38 -19t6 -60 q-41 -41 -93 -60q-25 -8 -48 -8.5t-45 5.5q-25 5 -46 13q-57 25 -84.5 71.5t-38.5 76.5q-19 63 -18 143.5t12 151.5q11 82 33 164q30 131 61.5 299t55.5 381q-262 -197 -421.5 -363.5t-249.5 -303t-125.5 -241.5t-46.5 -181.5t-12.5 -121.5t-23.5 -59q-38 -22 -73.5 -14 t-65.5 28q-33 22 -66 57q-68 76 -66.5 173t53.5 205t142 224t200.5 228t230.5 215.5t228 191t194 152t130 94.5q30 350 19 566.5t-44 338t-82 168t-98 54.5q-60 11 -109 -13.5t-88 -59.5q-44 -41 -79 -99q-63 -96 -114.5 -229.5t-94 -279.5t-72.5 -295t-46.5 -276 t-19 -219.5t10.5 -128.5q14 -49 6 -76q-5 -14 -14 -28q-14 -16 -31.5 -21.5t-31.5 -5.5q-16 0 -32 6q-52 16 -83.5 53t-46.5 90t-18 114.5t3 127.5q3 60 18 180t53 275.5t109 332t186 345.5q106 164 211 239t192.5 95.5t147.5 9.5t79 -19q104 -38 171 -134t104 -233.5 t49 -307t7 -352.5q197 180 303 318t151.5 240.5t42.5 175t-23.5 124t-46.5 84.5t-26 60q-3 44 33 55t68 5q22 -3 41 -11t36 -19q19 -10 35 -24zM874 1614q3 8 8 19q3 3 3 5q-5 -11 -12 -20.5t-16 -22.5q-3 -5 -13 -22q-3 -5 -14 -22q-3 -5 -14 -22q-3 -5 -5.5 -10.5 t-4.5 -11.5q-8 -14 -15 -24.5t-13 -24.5q-25 -46 -48 -96.5t-45 -102.5q-41 -104 -69.5 -210.5t-44.5 -204.5q-8 -49 -12.5 -95.5t-6.5 -90.5q-5 -41 -5.5 -78t2.5 -67q0 -33 2.5 -57.5t5.5 -40.5q0 -8 1.5 -15t1.5 -12v-8v71v19v16v19v17q3 35 5.5 69t7.5 67t9.5 64.5 t10.5 61.5q8 60 24 120q25 115 57 216l9 24l8 25q3 14 5.5 23t8.5 23q5 11 7.5 22t8.5 22l16 41q3 5 4.5 10.5t3.5 11.5q3 5 3 9t3 10q5 8 8 17.5t8 17.5q8 19 15 35.5t13 33.5q8 14 14.5 28.5t12.5 28.5q5 14 10.5 24.5t11.5 24.5q3 5 4 9.5t4 9.5q5 5 11 17q3 8 5.5 15 t5.5 12zM1040 153q3 3 3 5q-19 -14 -38 -30t-36 -32q-19 -16 -35 -33t-33 -33q-63 -68 -112 -136q-46 -66 -79 -134l-8 -17l-8 -16q-5 -8 -7 -15t-7 -15q-3 -8 -5.5 -16.5t-5.5 -13.5q-5 -11 -5 -17q-3 -5 -3 -6.5t-3 -6.5t-3 -8t-2 -6q0 -5 -1.5 -8t-1.5 -5q-3 -5 -3 -8 t-3 -6q0 -5 -1 -8t-1 -6q-5 -14 -6.5 -26t-4.5 -26q-3 -5 -3 -22q-3 -8 -3 -21q-3 -5 -2 -19q-3 -5 -3 -17v-16v-11v-22v-19q3 68 24 142q16 68 47 142q30 71 68 135t77 119q38 55 76 100t68 75l47 46q5 5 7.5 6.5t5.5 4.5zM1720 639q0 14 1.5 23.5t4.5 20.5q0 16 3 22v21 q3 22 4 42.5t4 42.5q0 14 1 23.5t1 20.5q3 14 3 41q3 22 3 41t3 41q0 22 1 39.5t1 39.5v38v38v74v34t-2 34v34t-3 32q0 16 -1.5 32.5t-1.5 30.5q-3 14 -4 28.5t-1 28.5q-3 14 -4.5 26t-3.5 26q-11 96 -31 155q-3 5 -2.5 12.5t-2.5 12.5q-5 11 -5 16q-5 11 -6 11v3 q3 -5 3 -14q3 -5 3 -8t2 -5v-8l3 -9q0 -8 3 -13v-6l2 -8v-14q3 -5 3 -16q0 -3 1.5 -5.5t1.5 -8.5q0 -5 1.5 -13t1.5 -14q0 -8 1 -15t1 -15q0 -5 1.5 -13.5t1.5 -13.5q0 -19 3 -28q3 -30 3 -57v-55q3 -14 2.5 -27.5t-0.5 -26.5v-27v-28q-3 -27 -2.5 -53t0.5 -53 q-3 -14 -3 -26.5v-25.5q0 -16 -3 -25v-27q-3 -14 -3 -25v-24q-3 -14 -2.5 -25t-2.5 -24q-3 -27 -4.5 -50.5t-3.5 -48.5q0 -14 -1.5 -24.5t-1.5 -24.5q-3 -11 -3 -22t-2 -24q-3 -22 -4.5 -45t-6.5 -45q-5 -46 -9.5 -90t-9.5 -85q-5 -44 -9.5 -83.5t-10.5 -77.5 q-3 -11 -2.5 -20.5t-2.5 -17.5q0 -11 -1.5 -19.5t-4.5 -19.5q-3 -19 -4 -36.5t-4 -34.5q-5 -35 -8 -69t-8 -64q-3 -8 -3 -16.5t-3 -14.5q0 -8 -1 -16t-1 -14l-8 -57q-8 -55 -14 -101t-11 -85q-5 -38 -8 -66.5t-6 -50.5q-3 -25 -2 -41q16 79 33.5 161t34.5 169q5 22 8 42.5 t8 42.5l3 11l3 11q0 16 2 22q3 14 4.5 23.5t4.5 22.5q5 44 13 87.5t14 90.5q3 11 4 20.5t4 22.5q0 16 6 44q3 22 5.5 45t4.5 45q3 8 3 22q3 8 3 22q3 14 3 23.5t2 20.5q3 22 5.5 43.5t5.5 43.5zM2078 1147q8 8 16.5 16t19.5 17q8 11 16 19l16 16t15 17.5t15 18.5 q33 35 61.5 73.5t56.5 76.5q3 3 2.5 5.5t2.5 5.5q5 5 6 8q5 5 6.5 10.5t6.5 11.5q5 11 9.5 20.5t9.5 20.5q5 5 6 8l5 11q3 5 4.5 10.5t4.5 11.5q3 5 4 9t4 10q3 5 4 10.5t4 11.5q3 5 3 9t2 10q0 3 1.5 3t1.5 2v6q3 3 3 11q0 3 1.5 4t1.5 4q0 5 2 5v6q0 5 1.5 9t1.5 10 q0 5 1.5 6.5t1.5 4.5v11q0 5 3 8v11v19v19v3v5v8v11q0 3 -1.5 4.5t-1.5 4.5q0 11 -3 16q0 11 -3 16q-8 33 -16 58q-14 25 -25 41q-5 11 -9 17.5t-10 12.5l-16 16l-6 6q3 -3 4.5 -6t4.5 -5q5 -5 5 -9l6 -5q0 -3 1 -3t1 -3q3 -3 3 -4t3 -4l2 -5l3 -8q8 -14 12.5 -27.5 t9.5 -27.5t8 -29t3 -28l3 -6v-8v-14v-13v-14q-5 -63 -19 -106q0 -5 -1.5 -7t-1.5 -7l-3 -6l-3 -5l-8 -25q-5 -14 -9 -24.5t-10 -21.5q-5 -5 -5 -11l-3 -5l-3 -6q-5 -5 -6.5 -10.5t-7.5 -11.5q-3 -11 -10 -22q-3 -5 -6 -9t-5 -10q-8 -11 -15 -20.5t-13 -17.5q-5 -11 -12 -19 t-12 -19q-5 -8 -12 -16.5t-16 -16.5q-3 -5 -5.5 -8t-4.5 -8q-5 -5 -7 -8t-7 -9q-5 -5 -6.5 -8t-7.5 -8q-3 -5 -11 -14q-16 -22 -24 -30q-49 -57 -90 -98l-38.5 -38.5t-32.5 -29.5l-44 -44q-5 -5 -8 -6.5t-6 -4.5l-2 -3q35 22 70.5 49.5t71.5 57.5q11 8 19 16.5t16 13.5z" />
<glyph unicode="Y" horiz-adv-x="2370" d="M2346 1442q44 -22 65.5 -57.5t29.5 -68.5q11 -38 8 -82q0 -66 -19 -177q-16 -96 -54.5 -251.5t-111.5 -387.5q-87 -273 -183 -530t-198.5 -478t-209 -398.5t-217 -292t-223.5 -158.5t-228 3l-38 22q-16 11 -32.5 23t-27.5 31q-19 27 -23.5 64t34.5 54q19 8 47.5 1t68 -11 t88.5 7t110.5 54.5t132.5 131t153 237.5t176.5 374t197.5 541q-104 -158 -222.5 -308.5t-241.5 -265t-246 -180t-234 -57.5q-76 5 -125.5 27t-85.5 52q-68 55 -64 150.5t34 190.5q35 109 101 235q79 139 172 331.5t197 449.5q145 360 206.5 591t66.5 369t-30.5 199.5 t-81.5 85.5q-55 27 -109.5 15t-100.5 -34q-52 -30 -104 -71q-85 -74 -173.5 -187t-169 -241.5t-151.5 -263.5t-123 -251t-80.5 -205t-26.5 -127q3 -27 -4 -45t-12 -29q-11 -14 -19 -22q-19 -14 -37 -13.5t-31 5.5q-16 5 -33 14q-46 30 -65.5 75t-19.5 99.5t16.5 114.5 t38.5 121q19 57 68 169t131 250t198 285t275 279q98 85 185.5 131t161 64t133.5 13.5t105 -18t72.5 -30t38.5 -24.5q82 -60 120 -159.5t41 -228t-26 -278.5t-76.5 -310t-112 -324t-132.5 -319q-87 -197 -161 -345.5t-134 -263.5q-19 -33 -32 -63q-14 -27 -27.5 -58.5 t-19.5 -53.5q-14 -35 -19 -70.5t-1 -65.5t21.5 -50.5t55.5 -26.5q66 -11 156 43.5t191 158.5t210.5 250t214.5 321t199 368.5t171 393.5q19 93 30 155.5t15 102t4 60t-3 29.5q-8 19 -8 40v20q5 66 31 86t56 17q36 -2 80 -24zM814 1819q-8 -5 -18 -13.5t-20 -16.5l-9.5 -9.5 l-10.5 -10.5q-5 -5 -9 -7.5t-10 -8.5q-5 -5 -9 -9.5t-10 -9.5q-5 -5 -9 -8t-10 -8q-11 -11 -19 -20.5t-19 -18.5q-38 -38 -73.5 -80.5t-71.5 -85.5q-71 -87 -128.5 -181.5t-100.5 -184.5q-22 -46 -40 -88.5t-31 -83.5q-14 -38 -25 -73.5t-19 -65.5q-5 -30 -10.5 -55 t-8.5 -41q-3 -8 -3 -15t-3 -12v-8q5 19 9.5 35t10.5 33q0 8 5 19q0 5 5 16q0 5 6 17q0 5 5 16q11 33 23.5 64.5t26.5 61.5t27.5 58.5t26.5 58.5q14 30 29 56t29 53q57 101 114 189q11 16 14 22q5 5 8 10.5t8 10.5q5 11 13.5 20.5t14.5 18.5q5 11 13 20.5t14 17.5 q5 11 13.5 19t13.5 16q5 5 6.5 9.5t7.5 9.5q3 5 5.5 8t5.5 9q5 5 12 13.5t12 16.5q14 14 25 29t22 28q14 14 23.5 25t17.5 22q11 14 19 22t16 19l17 16q3 5 11 14q5 8 10.5 13.5l10.5 10.5zM874 -82q-3 -3 -3 -5q19 27 37 54.5t37 57.5q8 14 16 30t17 30l5 8l6 8q3 3 8 14 l16 32q5 8 8 15t8 15t9.5 16.5t7.5 16.5q8 16 16 32.5t19 33.5l33 65q5 16 13.5 32.5t16.5 33.5q8 16 16.5 32.5t13.5 32.5q11 22 17 36q11 22 13 33q16 33 31.5 65.5t28.5 65.5q3 11 14 33q3 11 14 32l24 66l25 65q3 5 5.5 13.5t5.5 16.5q5 8 6.5 16.5t4.5 13.5 q5 16 10.5 31.5t10.5 31.5q5 14 9.5 29t10.5 31q0 3 1 5.5t1 8.5q3 5 3 6.5t3 7.5q3 11 8 27q3 8 4 15t4 15q5 16 6 27l8 25q5 16 5 27q5 14 6.5 25t7.5 24q5 22 8 44t8 44q11 79 17 128q0 14 2 19v14v11v2q-3 -25 -5.5 -48t-7.5 -47q-3 -5 -3 -11t-3 -11q0 -11 -5 -22 q-5 -27 -11 -46q0 -5 -6 -22q0 -5 -5 -22q0 -5 -5 -22q0 -5 -6 -22q-5 -11 -6.5 -20.5t-7.5 -22.5q-3 -11 -5.5 -20.5t-5.5 -20.5q-52 -161 -114 -314q-5 -16 -14 -36q-5 -11 -8 -19l-6 -16q-5 -8 -7.5 -18t-8.5 -18q-3 -8 -5.5 -16t-8.5 -19l-57 -131q-5 -14 -12 -30.5 t-15 -29.5q-5 -16 -12 -31.5t-13 -29.5q-14 -30 -24.5 -57t-24.5 -54q-14 -25 -24.5 -49.5t-21.5 -49.5q-5 -14 -9.5 -23.5t-9.5 -22.5q-5 -11 -11 -20.5t-11 -20.5q-11 -27 -19 -38q-5 -11 -8 -19.5t-9 -19.5q-8 -16 -16 -32.5t-14 -29.5q-5 -5 -6.5 -12.5t-6.5 -12.5 q-5 -8 -11 -25q-5 -5 -7 -9t-4 -10l-9 -16q-5 -5 -6.5 -11t-6.5 -11zM2318 868q5 16 7 28.5t4 21.5q3 11 6 19q-11 -35 -20.5 -68t-20.5 -66q-5 -19 -11 -35.5t-11 -32.5t-10.5 -33t-11.5 -33q-5 -16 -10.5 -31t-11.5 -32q-5 -16 -10.5 -32.5t-11.5 -32.5 q-5 -14 -10.5 -30.5t-10.5 -32.5q-5 -14 -11 -30.5t-11 -32.5q-44 -123 -86.5 -239t-83.5 -228q-5 -14 -10.5 -27.5t-10.5 -26.5q-8 -25 -22 -52q-5 -14 -9.5 -27.5t-9.5 -27.5t-11 -26t-11 -26t-9.5 -24.5t-9.5 -24.5q-5 -8 -11 -25q-3 -5 -5.5 -12t-5.5 -12l-41 -98 q-41 -96 -80.5 -180.5t-78.5 -161.5q-38 -76 -75 -143t-75 -122q-19 -30 -36.5 -54.5t-34.5 -46.5q-11 -16 -16 -22q-5 -5 -8 -10.5t-9 -10.5q-5 -5 -9 -9.5t-10 -10.5q0 -3 -5 -8l-8 -8l-8 -8l-9 -8l-16 -17l-3 -2q0 -3 -3 -3l-8 -8q-5 -3 -6.5 -6t-6.5 -5q-8 -8 -14 -11 q0 -5 -5 -6q-5 -5 -6 -5q-5 -3 -11 -8q-5 -5 -5 -6q-3 0 -6 -2q-8 -5 -19 -11q-8 -8 -14 -9q-5 -5 -8 -5l-2 -3q49 22 87 49q3 3 5.5 4.5t5.5 4.5l8 8q5 3 11 8l5 3l6 5q5 5 9.5 8t9.5 9l19 19q19 16 37 35t34 38q5 5 8 11t8 11t17 22q5 5 8 9.5t8 9.5t8 11t9 11 q63 87 118.5 181.5t105.5 192.5q49 98 94 198t83 201q5 14 9.5 24.5t9.5 24.5q3 5 5.5 12t5.5 13l6 10q0 5 1 7t1 7q11 25 19.5 49.5t19.5 46.5q19 49 35 96.5t33 94.5q63 186 110.5 344t80.5 278q14 57 26 103.5t20 79.5z" />
<glyph unicode="Z" horiz-adv-x="879" d="M2146 1999q5 -41 -5.5 -69.5t-28.5 -46.5t-37 -29t-30 -16q-19 -5 -127 -62.5t-312 -208.5h2q120 -52 164 -102.5t14 -93.5q-14 -16 -40 -15t-50 9q-30 11 -63 28q-85 44 -167 68q-235 -180 -562 -489q-246 -229 -386.5 -393t-206 -277.5t-72.5 -183t15 -113.5 q27 0 38 -2q265 -22 468.5 -63t342.5 -85q164 -49 284 -109q128 -66 188.5 -154.5t13.5 -200.5q-11 -22 -24 -41q-14 -16 -30.5 -35.5t-40.5 -29.5q-25 -11 -48 -3t-32 49q-5 22 -33.5 72.5t-117.5 114.5t-255.5 131t-444.5 119q-71 11 -135.5 20.5t-127.5 14.5 q-71 11 -107.5 34.5t-47.5 34.5q-30 35 -49.5 70.5t-29.5 71.5q-19 57 -20.5 105t0.5 75q19 126 98.5 265t197 282.5t263.5 286.5t299 277q57 49 114.5 94.5t111.5 88.5q-16 -3 -35 -5.5t-38 -5.5q-30 -5 -64.5 -1t-61.5 29q-19 16 -20.5 46t12.5 57q16 30 43.5 45t59 22 t63 7h55.5q120 -3 230 -30q128 79 236 133.5t190 90.5q-167 -19 -292.5 -17.5t-188.5 12.5q-63 8 -123 24t-108 43.5t-79 66t-34 92.5q-3 16 3 33q5 14 13 29t30 28q11 5 28 8q14 0 32.5 -4t40.5 -17q30 -19 115 -37t203.5 -30.5t260.5 -18t287 0.5q19 0 43.5 -3t49 -13.5 t42.5 -28.5t23 -45zM423 -161l90 -16q22 -5 42.5 -8t42.5 -9q44 -8 82 -16t76 -19q74 -19 137 -38.5t117 -38.5q25 -11 47 -19t43 -16q5 -3 9.5 -6t10.5 -5q11 -5 19 -8q8 -5 15 -8t15 -6q16 -11 22 -14q8 -3 16 -11l11 -5l3 -3q-49 44 -110 77q-57 30 -128 57 q-68 27 -135 43.5t-130 30.5t-117.5 20.5t-92.5 11.5q-19 3 -34 3t-29 3h-22zM1079 1343q-38 -27 -75 -54t-73 -55q-74 -57 -139 -114q-33 -30 -64.5 -57.5t-61.5 -57.5t-58.5 -57.5t-58.5 -57.5q-27 -30 -53 -56t-51 -56q-11 -16 -22 -27q-8 -11 -24 -27q-5 -8 -11 -15 t-11 -15q-5 -5 -11 -12.5t-11 -15.5q-11 -14 -20.5 -27.5t-20.5 -26.5l-16 -25q-5 -5 -7 -8l-4 -6q0 -3 -1.5 -4t-1.5 -4q-5 0 -5 -5q-8 -14 -18 -26t-15 -26q-5 -11 -17 -27q-11 -16 -13 -25q-3 -5 -4.5 -6.5t-3.5 -7.5q-3 -3 -3 -5.5t-3 -5.5q-11 -16 -14 -24 q-5 -14 -10.5 -26t-10.5 -23q-22 -55 -30 -96q-14 -46 -14 -82q-5 -38 0 -71q0 -16 2.5 -28.5t5.5 -25.5q3 -8 8 -20q3 -5 3 -9t3 -10q3 -3 4 -5.5t4 -5.5v-5q0 -3 3 -3q0 -3 2 -5q0 -3 3 -3q-5 14 -9.5 30t-9.5 30q-3 16 -4 32.5t-1 33.5q5 68 24 133q19 63 55 129 q5 8 8 15t8 15q11 16 19 30q11 16 20.5 31t17.5 29l22 30q5 11 11 16l8 14q5 5 11 13.5t11 16.5q5 5 11 13.5t11 13.5q22 30 45 56t45 56q46 55 90 104t90 96q87 96 166.5 172t139.5 131q30 27 53.5 49t42.5 35q19 19 24 22zM1849 2018q25 3 43 8q8 3 14 3q-14 0 -29 1.5 t-31 1.5h-30h-30h-30h-17h-16h-63q-63 3 -124 7t-116 9t-102.5 15t-80.5 18q-19 5 -31.5 8t-23.5 5q-11 5 -13 6l-3 3h-3q5 -3 9.5 -6t9.5 -5q11 -5 19 -9l17 -8q8 -3 19 -8t19 -6.5t19 -7.5q8 -3 18 -5.5l18 -4.5q5 -3 9 -3t10 -3q5 -3 9 -3t10 -2q8 -3 17.5 -4.5 t17.5 -4.5h9q3 -3 11 -2q5 0 7.5 -1.5t8.5 -1.5q5 -3 16 -3q8 -3 19 -2q68 -11 128.5 -12.5t109.5 1.5h25q5 3 13 2h11q11 3 20.5 3t20.5 3q14 0 19 3h17q22 5 30 5z" />
<glyph unicode="[" horiz-adv-x="1354" d="M1242 2053q27 -11 41 -27q14 -14 15.5 -41t-23.5 -68q-19 -30 -43.5 -28.5t-58.5 -12.5t-76.5 -68.5t-99.5 -196.5q-46 -120 -113.5 -295t-138.5 -371.5t-140.5 -398.5t-122.5 -379.5t-86 -312.5t-27 -198q5 -117 51.5 -174.5t92.5 -82.5q8 -5 19 -16t17 -33 q3 -27 -3 -49q-5 -19 -16 -35.5t-36 -21.5q-22 -5 -38 0q-38 3 -67 20.5t-50.5 40.5t-36.5 47.5t-23 44.5q-60 150 -56 361.5t49 445t120 474t154 449t150 370t110 240.5q0 3 2.5 8t7.5 19l9 16q22 38 54.5 91.5t70.5 100.5q44 52 110.5 81.5t181.5 -0.5zM887 1701q5 8 7 15 t4 13l6 10q-46 -79 -84.5 -156.5t-74.5 -154.5q-38 -76 -68 -148.5t-60 -143.5q-57 -142 -101 -267.5t-74 -232.5q-30 -104 -47.5 -188.5t-25.5 -144.5q-5 -16 -5.5 -28.5t-3.5 -26.5q0 -3 -1 -4t-1 -6v-9q0 -5 -1.5 -9t-1.5 -10q-3 -11 -3 -22v-8q30 123 68.5 253t84.5 261 q46 134 92.5 262t90.5 245q46 115 84.5 215t68.5 171q14 38 26 65t20 49z" />
<glyph unicode="\" horiz-adv-x="1750" d="M186 2059q52 8 91.5 -5.5t66.5 -35.5q30 -25 52 -60q82 -131 177 -320q82 -161 188.5 -400t221.5 -564q131 -369 241.5 -609t191 -380.5t128.5 -200.5t56 -68q5 -5 12 -13.5t13 -14.5q8 -8 13 -16q38 -55 31.5 -86t-31.5 -51q-30 -22 -76 -30q-55 -11 -93 4t-65 37 q-30 25 -52 60q-109 186 -208 375q-85 161 -172 348t-139 353q-131 369 -252.5 640.5t-214.5 453.5t-151.5 273t-67.5 100q-5 5 -12 13.5t-12 13.5q-8 8 -14 16q-38 55 -31 86.5t31 50.5q28 22 77 30zM445 1709q5 -8 9.5 -19t12.5 -24q14 -30 34.5 -71t44.5 -93 q25 -55 52 -117.5t57 -133.5t61.5 -151.5t61.5 -168.5q5 -14 8 -23.5t9 -22.5q5 -11 8 -20.5t8 -23.5q5 -11 8 -22t8 -22q5 -14 8 -24.5t9 -21.5q8 -25 16 -48t17 -45q8 -25 16 -49.5t16 -45.5q35 -96 72.5 -194.5t77.5 -193.5q3 -5 6 -12t5 -13l11 -22q5 -14 9.5 -24.5 t9.5 -24.5t11 -23.5t11 -22.5q5 -14 12 -25t13 -22q22 -46 45 -92.5t48 -90.5q106 -186 215 -327l-24 41q-14 19 -30.5 49t-37.5 68q-14 16 -25 41q-3 5 -5.5 10.5t-5.5 11.5q-5 5 -6.5 12t-7.5 12q-5 11 -12 23.5t-12 26.5t-13.5 27.5t-13.5 26.5q-30 57 -60.5 124 t-60.5 144q-33 76 -65.5 159.5t-65.5 173.5q-19 44 -35 96q-8 22 -17.5 46.5t-18.5 48.5q-8 25 -17.5 51t-17.5 50q-11 27 -20.5 52t-17.5 52q-38 106 -84.5 215.5t-98.5 224.5q-55 115 -115 229q-8 14 -15 29t-15 28q-11 22 -16 30t-8 15t-9 15q-16 30 -32.5 57.5 t-35.5 57.5l3 -3q0 -6 5 -11z" />
<glyph unicode="]" horiz-adv-x="1357" d="M1079 1911q60 -150 55.5 -361.5t-49.5 -445t-120 -474t-154 -449t-150 -371t-109 -239.5l-14 -27l-8 -16q-19 -38 -52 -91.5t-71 -100.5q-44 -52 -112 -82t-180 1q-30 11 -44 27q-14 14 -15 39.5t26 69.5q19 30 43.5 28.5t57.5 12.5t76.5 68.5t100.5 196.5 q46 120 112 295t137 371.5t140.5 398.5t124 379.5t86 312.5t29.5 198q-5 117 -52 176t-93 81q-8 5 -19 16t-17 33q-3 27 3 49q5 19 15 35.5t37 21.5q19 3 38 0q38 -5 67 -21.5t50.5 -39.5t37 -48t23.5 -44zM1002 1120q0 5 3 8q-30 -123 -69.5 -251.5t-83.5 -262.5 q-46 -134 -92.5 -262t-90.5 -243q-46 -117 -84.5 -217t-68.5 -171q-14 -38 -26 -65t-20 -46l-17 -41q44 79 82 156.5t77 154.5q35 79 66.5 151.5t61.5 143.5q57 139 99.5 264.5t72.5 232.5q30 106 49 191t28 145q3 14 4 26t4 25q0 8 2 11v11q0 11 3 17v22z" />
<glyph unicode="`" horiz-adv-x="486" d="M93 1324q27 38 71 19q22 -11 30 -16t14 -8q38 -35 83 -62.5t69 -41.5q8 -5 24.5 -14.5t30.5 -22t22 -26t3 -27.5q-30 -38 -66 -46q-11 -5 -31.5 -1.5t-41 9t-38 12.5t-23.5 10q-22 8 -31.5 12t-22.5 9q-44 19 -70 45t-35.5 53.5t-5.5 53.5t18 42zM325 1109 q-46 19 -84.5 42t-65.5 42q-30 22 -58 44q3 -27 36 -50.5t71 -39.5q46 -22 101 -38z" />
<glyph unicode="a" horiz-adv-x="871" d="M882 680q3 -52 -13.5 -97t-46.5 -108q-63 -134 -79.5 -205t5.5 -84q3 0 7 -1.5t7 -1.5q5 0 14.5 -1.5t23.5 -12.5q14 -8 16.5 -23t-10.5 -34q-55 -46 -115 -34t-98 50q-33 38 -38.5 90t-5.5 82q-49 -52 -102.5 -103.5t-104 -92.5t-98 -65.5t-83.5 -24.5 q-79 0 -122.5 61.5t-38.5 153.5q3 87 37 185.5t88.5 194.5t121.5 182t136.5 148.5t135 95.5t115.5 24q79 -14 125.5 -54.5t64 -84t12 -78t-29.5 -36.5q-22 -3 -30.5 3.5t-11 16.5t-5.5 19.5t-11 17.5t-25.5 8t-45 -13.5t-66 -47.5t-89.5 -95q-52 -60 -111 -150t-104 -176 t-67 -147.5t0 -64.5q14 -3 49.5 22t82 67.5t99.5 97t103.5 111.5t90.5 113t61 100q3 14 1.5 23.5t-1.5 23.5q-3 5 0 13q0 14 19 25q19 8 42.5 9.5t44 -9.5t34 -34.5t16.5 -58.5zM71 153q3 57 25 131q19 63 60 155.5t117 215.5t146 188.5t124 95.5q63 35 118 41q-5 11 -41 15 t-93 -23t-132.5 -96.5t-156.5 -206.5q-85 -137 -120.5 -233.5t-46.5 -159.5q-11 -74 0 -123z" />
<glyph unicode="b" horiz-adv-x="999" d="M827 1073q63 -14 112 -60q41 -38 74 -116t25 -212q-8 -106 -56 -218t-124.5 -214.5t-173.5 -184.5t-200.5 -128t-209 -49t-198.5 57q-25 19 -43 49q-16 25 -30 59t-11 81q0 8 5 16q5 5 11 12t17 7t21.5 -22t30 -52t49.5 -58.5t79 -42.5q46 -14 135 31.5t183 135.5 t176 219.5t120 288.5q8 57 8 109q0 46 -9.5 90t-33.5 71q-22 25 -78 5.5t-130 -78t-162.5 -157t-175.5 -234.5q-27 -90 -39.5 -153t-12.5 -85q0 -57 -18 -75t-41 -12.5t-46.5 27.5t-39.5 44q-14 16 -16.5 43.5t0.5 57.5q3 33 10 71q38 229 110.5 454.5t148 416.5t139.5 329 t89 193t61.5 83.5t77.5 38t79 6.5t66 -11q35 -14 44.5 -42.5t1.5 -50.5q-8 -19 -22 -33q-8 -8 -14 -11q-35 -35 -61 -72t-48 -67q-25 -35 -41 -74q-115 -213 -203.5 -431t-151.5 -407q46 66 106.5 135.5t128.5 124t139 83t142 12.5zM617 1780q-76 -101 -147 -243 q-63 -123 -132.5 -304.5t-127.5 -426.5q82 208 159 398q33 79 67 162.5t66.5 161.5t61 143t53.5 109zM972 557q30 112 24.5 191t-27.5 134q-25 63 -65 104q33 -46 49 -115q14 -57 14 -144.5t-39 -202.5q-38 -117 -85.5 -197.5t-88.5 -132.5q-49 -60 -99 -96q5 3 43.5 34.5 t89 89t101 140.5t83.5 195z" />
<glyph unicode="c" horiz-adv-x="715" d="M710 1098q60 -57 67 -123t-18 -128q-11 -22 -24 -39q-14 -14 -30.5 -24.5t-38.5 -5.5q-19 5 -32.5 26t0.5 56q5 22 10.5 38.5t8.5 29.5q3 14 5 28q-68 -55 -131 -142.5t-115 -191t-92.5 -210t-62.5 -196.5t-25 -153t22 -77q33 -19 90 12.5t114.5 80.5t102.5 99.5t56 67.5 q14 16 29 19t26 -11q11 -16 5 -38l-5 -22q-8 -27 -37 -71t-70 -87.5t-88.5 -83t-96.5 -58.5q-76 -30 -129.5 -30.5t-92.5 13.5q-44 14 -73 44q-55 52 -72.5 132.5t-8 177.5t40.5 200.5t76.5 200.5t96 180.5t99.5 140.5q66 79 136 128q60 41 127 56.5t130 -39.5zM74 156 q38 186 98 337t117 261q68 128 142 229q-128 -126 -199 -269t-106 -269q-41 -147 -52 -289z" />
<glyph unicode="d" horiz-adv-x="849" d="M1417 1906q35 -14 45 -42.5t2 -50.5q-8 -19 -22 -33q-8 -8 -14 -11q-35 -35 -61 -72t-48 -67q-25 -35 -41 -74q-63 -120 -131 -271.5t-133.5 -315t-127 -330.5t-113.5 -317q-27 -79 -45 -155.5t-26 -139t-5.5 -103.5t16.5 -50q22 -11 35.5 -9.5t24.5 8.5t23 14t29 7 q27 0 32 -20q3 -11 0 -19q-11 -30 -31 -46.5t-42 -24.5q-27 -11 -58 -11q-38 0 -61 5.5t-45 19.5q-44 22 -68.5 59t-35.5 80.5t-12.5 91t4.5 88.5q3 27 7 50.5t9 42.5q5 22 11 38q5 19 11 37t11 37q-46 -57 -99.5 -114.5t-106.5 -102.5t-101 -73.5t-86 -28.5 q-76 3 -125.5 72.5t-35.5 172.5q11 79 46.5 177.5t87 201t113 199.5t126 169.5t126 112t110.5 31.5q74 -14 119 -55t66 -87q57 145 112 277t101.5 237.5t78 177.5t44.5 100q25 55 62 83.5t77.5 38t79 6.5t65.5 -11zM109 87q-16 63 -5 153q8 76 45 185.5t127 254.5 q106 177 188 274t161 111q-16 11 -38 11q-19 0 -47.5 -13.5t-67.5 -52.5q-25 -25 -75 -89t-107.5 -150t-110.5 -185.5t-84.5 -193.5t-33 -175t47.5 -130zM243 188q19 -3 69.5 39.5t113.5 109.5t127 147.5t108 154.5q22 55 42.5 112t41.5 112q-5 14 -5 29t-14 26 q-8 8 -25.5 9t-43.5 -15t-64.5 -54.5t-90.5 -106.5t-107.5 -163.5t-96.5 -183t-59 -150.5t4 -66zM822 806q82 208 158 398q33 79 67 162.5t67 161.5t63 143.5t52 108.5q-74 -101 -145 -243q-63 -123 -134 -304t-128 -427z" />
<glyph unicode="e" d="M745 467q30 -3 34.5 -53.5t-14.5 -107.5q-22 -60 -61.5 -119t-98.5 -104t-137 -69.5t-173 -16.5q-90 8 -158 55q-57 38 -102.5 116t-31.5 222q8 93 43 189q30 82 91.5 176t171.5 179q52 38 106 65q46 22 101 34.5t101 -9.5q82 -35 98.5 -106t-8.5 -129q-14 -30 -37 -72.5 t-70.5 -88.5t-129.5 -92.5t-211 -82.5q-33 -87 -41 -158q-5 -63 10 -119t83 -78q66 -22 124.5 0t106.5 66t82 101t50 106l12.5 27.5t17 33t20 26t21.5 9.5zM557 729q16 22 20.5 44t-5 35.5t-34.5 13.5t-60 -22t-69.5 -58.5t-59 -72t-39.5 -61.5t-10 -26q22 0 59 13.5 t74 36.5t71 49t53 48zM63 407q25 79 65 158q35 68 88.5 144.5t130.5 139.5q104 85 170.5 104t102.5 5q-11 11 -25 22q-30 19 -82 11q-33 -5 -94 -43.5t-129.5 -109.5t-130 -178.5t-96.5 -252.5z" />
<glyph unicode="f" horiz-adv-x="557" d="M836 1769q33 -19 41 -42t0 -45q-8 -16 -20 -35q-5 -8 -10 -14q-35 -33 -61.5 -71t-48.5 -68q-25 -35 -41 -71q-85 -158 -142 -284t-103 -252q-3 -16 -11 -35q-5 -16 -13.5 -38t-16.5 -52q52 41 90 95.5t57 103.5q11 25 33 60.5t44 32.5q30 -5 30 -55.5t-22 -105.5 q-35 -79 -103.5 -154t-172.5 -111v-3q79 -82 112 -214t27.5 -281t-42.5 -298t-95.5 -262t-134 -177.5t-157.5 -45.5q-68 16 -99.5 86t-35.5 175t14 235t49 265t68 267.5t73 244.5q-14 3 -29 4t-31 4q-14 0 -25 6q-8 5 -15 12t-7 26q-3 16 6 27q8 25 52 27h42t42 -5 q19 55 33 98.5t25 70.5q44 142 93 265t92.5 221.5t77.5 169.5t51 109q25 52 61.5 83t77.5 43.5t79.5 8t65.5 -20.5zM150 -470q27 -14 60 28.5t64.5 122t57.5 183t35.5 214t-1.5 214.5t-49 183q-44 -145 -89 -303t-73.5 -296t-34 -234t29.5 -112zM279 756q57 177 120 344 q27 71 55.5 146.5t60 146.5t61.5 133.5t60 111.5q-57 -76 -120 -199q-55 -104 -117.5 -272t-119.5 -411z" />
<glyph unicode="g" horiz-adv-x="887" d="M1526 -371q3 -27 -2 -47q-5 -16 -13.5 -29.5t-30.5 -8.5q-19 3 -27 11l-14 14q-5 11 -12 15t-13 6q-22 8 -69.5 23.5t-124 29t-183 21.5t-248.5 3q-60 -3 -120 -5.5t-117 -8.5q-104 -161 -234 -267.5t-288 -100.5q-8 0 -19 2q-8 3 -20.5 4.5t-23.5 6.5q-30 16 -45 39.5 t-18 28.5q-8 25 -9 60.5t18 76.5t62.5 89t122.5 99q52 33 127 62t163 50q46 87 95 200.5t104 261.5q-79 -82 -185.5 -160t-237.5 -102q-38 -8 -71 11t-55 53t-32.5 82t-2.5 99q11 79 46.5 177.5t86 201t113 199.5t127 169.5t126 112t110.5 31.5q79 -14 125.5 -60.5t64 -95.5 t12 -88.5t-29.5 -42.5q-22 -3 -30.5 4t-11 18t-5 23t-11.5 21q-8 8 -25.5 9t-45 -15t-65.5 -54.5t-90 -106.5t-105.5 -159.5t-93 -176.5t-58.5 -149t-3 -78q22 -16 89 14t146 93t153 146t112 173v17q-3 8 0 16q5 16 22 27q30 16 68 4t60 -58q5 -11 9.5 -37t-3.5 -70 q-8 -41 -28.5 -110.5t-49.5 -157t-68.5 -188.5t-88.5 -202q106 14 214 18t206.5 -4t183 -28.5t147.5 -56.5q30 -16 54 -41q22 -22 38.5 -49t21.5 -65zM109 87q-16 63 -5 153q8 76 45 185.5t124 254.5q109 177 191 274t161 111q-16 11 -38 11q-19 0 -47.5 -13.5t-67.5 -52.5 q-25 -25 -76.5 -89t-107.5 -150t-109 -185.5t-86 -193.5t-33 -175t49 -130zM-3 -579q16 -8 41 -9.5t60.5 15t77.5 57.5t97 120q-87 -27 -158.5 -69.5t-117.5 -113.5zM737 -186q188 5 316.5 -7t208.5 -28q93 -19 150 -47q-85 57 -199.5 76.5t-221.5 22.5q-126 -1 -254 -17z " />
<glyph unicode="h" horiz-adv-x="764" d="M464 1658q35 85 85 144q41 52 101 89t136 15q30 -8 58 -33q22 -22 39.5 -58.5t17.5 -96.5q-3 -33 -9.5 -74t-20.5 -90q-27 -90 -79 -195.5t-120.5 -206.5t-150 -188t-171.5 -142q-46 -131 -82 -243t-60 -202q44 76 105 173t130.5 180.5t142 138t138.5 51.5q55 -5 84 -46 q25 -35 27.5 -109t-49.5 -213q-25 -68 -57.5 -143.5t-56.5 -143.5q-57 -161 -71 -248.5t8 -101.5q3 -3 5 -2q8 3 20.5 0t26.5 -17q11 -11 15 -26t-10 -37q-22 -30 -53 -38t-61 -2.5t-57.5 20.5t-43.5 37q-22 27 -29 66.5t-7 75.5q0 41 6 84q19 153 62.5 284.5t79.5 210.5 q35 79 48.5 118.5t2.5 53.5q-5 5 -16 1t-22 -12q-11 -11 -27 -25q-66 -63 -134 -159.5t-125.5 -191t-95.5 -168t-44 -84.5q-8 -25 -26 -29t-38 5.5t-39.5 27.5t-32.5 37q-14 16 -16.5 43.5t-0.5 57.5q3 33 11 71q19 106 46.5 215.5t60.5 218.5q8 30 15 49t12 38 q41 126 84.5 244.5t86 224t82 195.5t69.5 156zM707 549q-22 -55 -34 -97t-18 -72q-8 -35 -11 -63q22 74 57.5 155.5t65.5 174.5q14 46 15.5 75t-4.5 48q-5 22 -16 33q5 -63 -10 -116t-45 -138zM669 1556q-68 -128 -129.5 -264.5t-116.5 -275.5q71 74 149 191t149 295 q33 63 49 112q14 41 18 72.5t-21 17.5q-8 -5 -19 -16q-38 -55 -57 -91q-11 -22 -22 -41zM532 1644q-49 -85 -98 -186q-41 -87 -86 -199t-75 -238q46 112 96 221q41 96 85.5 202.5t77.5 199.5z" />
<glyph unicode="i" horiz-adv-x="349" d="M131 715q8 22 16.5 45.5t13.5 39.5l16 38q5 16 22 38t47 14q16 -3 43.5 -18t50.5 -42t31.5 -71t-11.5 -104q-19 -52 -39.5 -103.5t-39.5 -100.5q-57 -158 -70.5 -246t7.5 -104h3q11 -5 17 -16q11 -22 0 -44q-8 -14 -29 -25t-45.5 -15t-50.5 1.5t-47 22.5q-11 5 -21 17.5 t-15 25.5q-8 14 -14 30q-8 22 -12 44t-7 38q-3 19 0 36q0 46 14 109t33 130t42 135t45 125zM150 590q22 68 40 117t28 96q-52 -112 -87 -216q-30 -87 -53 -182.5t-12 -161.5q11 52 21 109q11 49 26 110.5t37 127.5zM552 1270q27 -14 35 -33t3 -38q-3 -14 -14 -30 q-5 -8 -11 -14q-38 -44 -65.5 -91.5t-40.5 -72.5q-5 -8 -15 -24.5t-23.5 -31.5t-30 -24.5t-35.5 -3.5q-52 27 -74 60q-8 11 -6.5 32.5t5.5 43.5t9.5 39.5t8.5 23.5q5 22 9 33t10 22q16 46 46 73.5t64 39.5t67 9.5t58 -13.5zM311 1019q16 49 39.5 88.5t45.5 69.5q25 33 49 60 q-38 -5 -62.5 -40.5t-41.5 -74.5q-19 -48 -30 -103z" />
<glyph unicode="j" horiz-adv-x="387" d="M953 -418q3 -25 -3 -43q-5 -16 -13.5 -30t-29.5 -11q-19 3 -27.5 11t-13.5 16q-8 14 -22 22q-22 8 -70 23t-124.5 28.5t-184 20.5t-247.5 4q-60 -3 -120 -5.5t-120 -7.5q-49 -79 -107.5 -149t-124 -120.5t-138 -78t-151.5 -21.5q-8 0 -20 3q-8 3 -19 4t-21 7 q-33 14 -47 37t-19 31q-8 25 -9.5 60t17.5 76t63 87.5t123 98.5q112 68 289 115q25 46 64.5 133.5t84.5 188.5t89 204.5t74 183.5q55 150 83.5 253.5t41.5 166.5q14 74 17 118q-3 8 0 16q5 14 21 25q30 19 74 -3t66 -68q38 -68 27 -153t-27 -153q-14 -60 -41.5 -153 t-69.5 -206.5t-98 -241.5t-130 -259q106 14 214 16.5t206.5 -6t183 -29t147.5 -55.5q27 -16 52 -41q22 -22 38.5 -49.5t21.5 -65.5zM407 822q-27 -90 -56 -191t-56 -189q-30 -101 -63 -202q71 164 109.5 273.5t51.5 180.5q17 79 14 128zM-573 -625q16 -5 40.5 -8t58.5 13.5 t76.5 58.5t97.5 121q-87 -27 -157 -70.5t-116 -114.5zM167 -229q186 5 314 -7t207 -29q93 -22 153 -49q-85 57 -199.5 76.5t-220.5 21.5q-126 3 -254 -13zM341 1303q5 30 12 50.5t13 33.5q8 16 16 30q38 60 101 75t107 2q30 -11 39.5 -29t6.5 -40q-3 -19 -11 -30 q-5 -8 -8 -13q-35 -49 -55.5 -99.5t-31.5 -78.5q-3 -11 -11 -27t-19 -32.5t-26 -27.5t-34 -8q-33 11 -52 23t-33 26q-8 11 -12 32.5t-4 43.5t1 41.5t1 27.5zM448 1436q-25 -14 -41 -41q-14 -22 -26 -58.5t-12 -94.5q11 35 21 71q11 30 26.5 63t31.5 60z" />
<glyph unicode="k" horiz-adv-x="770" d="M1111 -229q22 -16 20.5 -35.5t-14.5 -33.5q-22 -25 -52 -38q-16 -8 -36 -14q-123 -30 -223.5 -9.5t-182.5 74t-145 132.5t-111 168t-80.5 177.5t-54.5 162.5q-35 -131 -53 -217t-18 -111q0 -57 -17.5 -75t-41 -12.5t-46.5 27.5t-40 44q-14 16 -16.5 43.5t0.5 57.5 q3 33 11 71q25 153 72.5 321t103.5 334.5t117.5 322t114.5 284t93 218.5l56 126q25 55 61.5 83.5t77.5 38t79.5 6.5t65.5 -11q35 -14 45 -42.5t1 -50.5q-8 -19 -21 -33q-8 -8 -14 -11q-35 -35 -61 -72t-48 -67q-25 -35 -41 -74q-115 -205 -203.5 -415t-157.5 -404 q57 76 134 164t154.5 157.5t147 103.5t119.5 1q44 -30 58.5 -95.5t-0.5 -150t-60 -176t-120 -169.5t-180 -131t-242 -61q82 -164 165.5 -272t162.5 -172t148.5 -94t125.5 -42.5t94 -16.5t52 -12zM926 934q-22 -55 -48 -106.5t-48 -92.5q-27 -49 -52 -93q49 46 79 96.5 t44 94.5q17 49 25 101zM844 1068q-19 3 -59 -24.5t-91.5 -75.5t-109 -108t-112 -120t-102.5 -116t-78 -92q5 -11 8 -19t9 -19q68 27 141.5 79t139 113.5t121.5 127t91.5 121.5t48 92t-6.5 41zM606 1671q-74 -115 -145 -265q-63 -131 -133.5 -312.5t-125.5 -413.5 q63 183 134 360q60 153 129.5 323.5t140.5 307.5zM437 -8q35 -66 85 -126q44 -52 109 -102.5t161 -77.5q-60 27 -120 74q-52 38 -115 95.5t-120 136.5z" />
<glyph unicode="l" horiz-adv-x="275" d="M833 1906q35 -14 54.5 -37t13.5 -56q-3 -16 -19 -38q-8 -11 -14 -16q-35 -44 -62.5 -82.5t-46.5 -68.5q-25 -33 -41 -62q-82 -147 -153 -299t-131 -298t-109 -282.5t-85 -251.5q-14 -41 -24.5 -79t-21.5 -74q-41 -158 -14 -175l6 -5l11 -11q11 -22 0 -38q-19 -33 -58 -41 q-22 -5 -37 0t-28 11q-14 8 -25 19q-22 22 -30 50.5t-14 53.5q-5 30 -2 54q0 60 16 142q14 71 34.5 149t42.5 143q60 197 131 389.5t136.5 353.5t116 276t69.5 156q25 55 61.5 83.5t77.5 38t79.5 6.5t65.5 -11zM229 806q87 238 149 398.5t103 275.5q-112 -257 -202 -489 q-38 -98 -76.5 -203t-68.5 -205t-49 -188.5t-22 -154.5q19 85 43 178q22 79 52 180.5t71 207.5z" />
<glyph unicode="m" horiz-adv-x="1176" d="M210 -11q-3 -5 -5 -14q-5 -14 -14 -21q-11 -14 -23 -18t-23 -7t-25 -3q-38 3 -60 22t-35.5 46.5t-19 60t-5.5 62.5q3 101 41 254q14 55 35.5 124.5t50.5 144.5t64.5 153t76.5 152q33 63 80.5 125.5t121.5 90.5q46 22 92.5 8t60.5 -47q8 -22 -3 -35q-5 -8 -11 -11 q-46 -52 -96 -137q-44 -71 -98.5 -183t-111.5 -273q5 14 10.5 25t11.5 24q76 158 143 258t121.5 157.5t94.5 80.5t64 29q11 3 26 4t37 -4q14 -3 27 -11q11 -5 23.5 -17.5t20.5 -31.5q35 -74 -3 -205q79 128 145 192.5t112 91.5q55 30 98 27q49 -8 74 -46q22 -35 20.5 -106.5 t-53.5 -207.5q-27 -68 -57 -143.5t-57 -143.5q-46 -131 -63 -214.5t-11 -115.5l5 -25q3 -16 3 -38t-7 -41t-22 -30t-45 -6q-25 8 -46.5 22t-35.5 33q-22 27 -28.5 66.5t-6.5 75.5q0 41 5 85q19 153 63 284t79 210t53 120t-1 52q-8 3 -20.5 -4t-37 -40t-69.5 -99.5 t-121 -181.5q-76 -117 -121.5 -217t-69.5 -174q-30 -87 -41 -158q-3 -27 -18 -38t-34 -14q-22 -5 -49 0q-41 8 -63 31.5t-31.5 52t-8 57t3.5 48.5q16 90 60 202t89 210t80.5 168t38.5 80q5 14 -1.5 17t-31 -22t-68.5 -85t-112 -169q-57 -90 -101 -180t-76.5 -170.5 t-54.5 -147.5t-36 -111zM79 279q52 158 109 308q25 63 53.5 131t58.5 132.5t61.5 121.5t64.5 104q-68 -74 -131 -186q-55 -96 -113.5 -247t-102.5 -364zM527 292q33 90 68 180q30 79 65.5 168t71.5 163q-55 -87 -98 -178q-38 -76 -70 -165t-37 -168zM1196 740 q-22 -55 -34 -97t-18 -72q-8 -35 -11 -63q22 74 57.5 154.5t65.5 175.5q14 46 15 75t-4 48q-5 22 -16 33q8 -63 -7 -116t-48 -138z" />
<glyph unicode="n" horiz-adv-x="780" d="M735 404q-41 -112 -59 -188.5t-18 -117.5q0 -19 3 -38q3 -16 7 -36.5t15 -37.5q5 -11 8 -21q5 -22 -14 -28q-46 -16 -94 3t-70 49t-30 67t-8 75q0 41 6 87q22 153 64 284.5t80 210.5q35 79 47.5 117t1.5 52q-5 8 -16 2.5t-22 -13.5q-11 -11 -27 -24 q-106 -112 -182.5 -240.5t-127.5 -239t-76.5 -187t-28.5 -87.5q-3 -14 -3 -25t-3 -22q-11 -35 -38 -41q-11 -3 -27 3q-49 14 -75 36t-40 43q-8 19 -9.5 37t1.5 26q3 33 8.5 70t13.5 80q11 52 30 130t45 164t57.5 170.5t69.5 155.5q30 57 71 117.5t112 84.5q44 16 90 2.5 t60 -43.5q5 -14 0 -32q-3 -8 -8 -11q-27 -27 -57 -77q-27 -44 -63 -116t-77 -187q46 74 99.5 146.5t111 129.5t115 92.5t108.5 32.5q52 -5 82 -46q25 -35 27.5 -109t-48.5 -213q-25 -66 -56 -142.5t-56 -144.5zM153 579q35 90 71 177q30 74 69.5 156t83.5 139 q-41 -27 -79 -87q-33 -52 -72.5 -145t-72.5 -240zM767 688q-22 -55 -34 -97t-18 -72q-8 -35 -8 -63q22 74 57.5 156t65.5 177q14 46 14 75t-6 48q-5 22 -16 33q8 -63 -7 -117.5t-48 -139.5z" />
<glyph unicode="o" d="M579 1139q128 -8 193.5 -72.5t87.5 -153t9.5 -185.5t-36.5 -174q-55 -172 -135.5 -281t-163.5 -169t-158.5 -80.5t-121.5 -20.5q-82 3 -147.5 42.5t-87.5 123.5q-25 87 -18 194t40 209t87.5 189.5t119.5 142.5q30 104 113.5 173.5t217.5 61.5zM164 718q-46 -76 -71 -162 t-33 -164t-4 -139.5t18 -91.5q-11 167 22 317q14 63 39.5 128.5t66.5 124t98.5 109t139.5 83.5q-44 -5 -93 -27q-41 -22 -89 -62t-94 -116zM699 620q35 126 30 198t-27 110q-27 44 -71 61q-101 25 -150 -28q60 -11 96.5 -35.5t53 -53t14 -52t-21.5 -31.5q-30 -11 -50.5 4 t-42.5 26q-22 8 -65.5 -5.5t-101.5 -92.5q5 -8 13.5 -24.5t15.5 -37t8 -38.5t-10 -28q-30 -25 -54.5 -12.5t-37.5 25.5q-46 -93 -67 -176t-23.5 -148.5t9.5 -105t31 -45.5q60 -16 128.5 23.5t131.5 112t113.5 166.5t77.5 187z" />
<glyph unicode="p" horiz-adv-x="1040" d="M1103 1308q60 -16 89 -73.5t30 -141t-23.5 -187t-66.5 -210t-101 -209t-128.5 -184.5t-146 -138t-155.5 -69q-46 -5 -82 5q-30 8 -56 30t-26 74q0 30 8 54q5 22 19 38.5t44 11.5q25 -5 76.5 27.5t117 109t138 200.5t138.5 302q14 38 19 68q5 25 2.5 45t-24.5 23 q-19 0 -79 -57.5t-141 -158.5t-172 -236t-177.5 -285t-157.5 -308.5t-106 -306.5q-5 -38 -10.5 -94t-0.5 -116q3 -8 3 -19t-6 -38q-8 -22 -34 -38.5t-59 -2.5q-27 11 -55.5 31.5t-52 53t-34 79t-2.5 109.5q8 57 42 200.5t95.5 333.5t150.5 404t206 416q19 30 38 58 q16 22 35.5 42t41.5 26q27 11 60 12.5t56 -9.5t24.5 -38.5t-31.5 -73.5q-52 -74 -134 -258.5t-166 -443.5q49 93 110.5 202t129.5 218.5t142 210.5t146 174.5t140.5 112t125.5 24.5zM66 153q57 169 125 339q57 145 131 310t153 301q-76 -98 -147 -237q-63 -120 -134 -296.5 t-128 -416.5zM898 401q123 147 179 285.5t75 247.5q22 128 9 240q-14 -175 -55 -315.5t-87 -244.5q-55 -120 -121 -213z" />
<glyph unicode="q" horiz-adv-x="895" d="M967 1100q27 8 61 9.5t57.5 -9t24.5 -38t-31 -73.5q-41 -55 -94.5 -165.5t-111 -266.5t-114.5 -351t-104 -419q-8 -38 -13 -82q-5 -38 -6.5 -86t3.5 -94v-22q0 -16 -5 -44q-11 -22 -36 -38t-60 -3q-25 11 -53.5 31.5t-51.5 53.5t-34 79.5t-3 108.5q8 66 45 227t108 374 q-49 -55 -101 -106.5t-104 -92.5t-98.5 -65.5t-81.5 -24.5q-76 3 -125.5 72.5t-35.5 172.5q11 79 42 172t76.5 189t104 187t122.5 163.5t131 120.5t133 59q123 22 189.5 -13.5t94.5 -90.5q16 22 35.5 41t35.5 24zM109 87q-16 63 -5 153q8 76 45 185.5t127 254.5 q106 177 188 274t161 111q-16 11 -38 11q-19 0 -46.5 -13.5t-65.5 -52.5q-25 -25 -76.5 -89t-109 -150t-110.5 -185.5t-84.5 -193.5t-33 -175t47.5 -130zM243 188q16 -3 66.5 35.5t113.5 98.5t128.5 135t114.5 146q35 79 73.5 160t85.5 160q-16 19 -49 22t-75.5 -17.5 t-94.5 -64.5t-104 -112t-107.5 -163.5t-96.5 -183t-59 -150.5t4 -66zM620 -104q46 175 98 350q46 147 105 318t130 313q-66 -104 -128 -249q-55 -123 -111 -306t-94 -426z" />
<glyph unicode="r" horiz-adv-x="398" d="M371 1109q19 -3 35.5 -1.5t27.5 3.5q11 3 22 3q5 3 25.5 7t42.5 -1q19 -5 37 -16.5t32 -38.5q19 -33 19 -68.5t-8.5 -68t-19.5 -58.5t-13 -34q-46 -101 -110.5 -221.5t-113.5 -232.5t-64 -199t39 -123q3 -3 8 -5q8 -8 9 -20q-3 -11 -15.5 -23t-36.5 -17q-44 -8 -90.5 15 t-76.5 75t-35.5 132.5t35.5 186.5q35 96 83 187.5t93 166.5t80.5 128t46.5 75q16 30 1.5 48t-61.5 15q-27 -3 -46 5q-63 -87 -127 -163.5t-119 -139.5q-5 -5 -16 -9t-11 31q0 30 13.5 72.5t21.5 64.5q0 3 3 5l5 11q30 30 63 68.5t71 84.5q-57 27 -68 84.5t6.5 126 t57.5 136.5t87.5 116t95.5 65.5t81 -17.5t37 -86t-14 -111t-53.5 -125.5t-79.5 -133.5zM306 1166q38 55 66.5 106.5t39.5 95.5q14 55 -4 46.5t-42.5 -48t-46 -97t-13.5 -103.5zM257 552q30 68 65.5 136t73.5 142q-66 -85 -120 -180q-46 -82 -88.5 -186t-56.5 -210 q16 44 36 93q16 41 39.5 94.5t50.5 110.5z" />
<glyph unicode="s" horiz-adv-x="494" d="M-44 -142q-3 14 3 25q3 5 3 8q5 22 33 22q14 0 22 -3t17.5 -5.5t20.5 -2.5t32 11q33 19 57.5 47.5t41 57t26 54.5t15.5 40q19 63 2.5 140.5t-46.5 146.5q-33 79 -82 158q-35 57 -40.5 124t13.5 134t58.5 132.5t91.5 122.5q90 101 168 132.5t138 29.5q68 -3 125 -41 q49 -30 67 -71t14 -79.5t-23 -68.5t-39 -38q-41 -14 -65 0q-11 8 -22 19q-16 19 -57 9.5t-89 -41t-94.5 -80.5t-73.5 -109q-30 -71 -16.5 -136.5t79.5 -161.5q19 -30 42 -79t42.5 -106.5t27.5 -120t-6 -123.5q-35 -131 -111.5 -193.5t-163.5 -81.5q-87 -14 -131 14.5 t-55 45.5q-25 35 -25 68zM374 210q19 -115 -8 -194t-66 -131q-46 -60 -112 -95q115 52 158.5 124t49.5 138q8 76 -22 158zM208 939q44 71 97 117.5t99 76.5q52 33 107 52q-35 -5 -71 -16q-33 -11 -72.5 -31.5t-78.5 -56.5q-41 -38 -77.5 -84.5t-61 -102.5t-34.5 -117.5 t4 -126.5q0 -14 8 -36q5 -19 19 -49t39 -73q-5 8 -22 49t-25 102.5t4.5 137.5t64.5 158z" />
<glyph unicode="t" horiz-adv-x="256" d="M745 1652q-11 -14 -21 -30l-18 -31.5t-18 -36.5q137 8 310 -3t400 -63q27 -5 49 -16q19 -8 33 -20.5t11 -26.5q-3 -11 -15 -19t-40 -2q-115 11 -248 13q-115 3 -268 -4t-327 -37q-112 -229 -198 -455.5t-143.5 -415t-86 -317t-28.5 -161.5q0 -57 -18 -75t-40 -12.5 t-46.5 27.5t-40.5 44q-14 16 -16.5 43.5t-0.5 57.5q3 33 11 71q25 134 64.5 282.5t88.5 297.5t102.5 292.5t102.5 268.5q-19 -5 -38 -10.5t-41 -10.5q-52 -14 -90 -17q-33 -3 -56 7t-15 45q22 46 63 87q35 35 92.5 67t144.5 40q8 0 15 1.5t12 1.5q41 96 70 160t42 94 q25 55 63 83.5t79 38t79.5 6.5t65.5 -11q33 -14 42.5 -42.5t1.5 -50.5q-8 -19 -22 -33q-8 -8 -14 -11q-58 -60 -93 -117zM718 1871q-46 3 -73.5 -18t-41.5 -43q-16 -30 -24 -62q19 30 42 51.5t45 38.5q25 19 52 33zM161 620q30 96 57.5 180.5t56 166.5t56 163.5t57.5 172.5 q-87 -205 -159 -407q-30 -87 -60 -181.5t-56 -189t-43.5 -186t-25.5 -170.5q14 63 32 137q14 63 36 145t49 169z" />
<glyph unicode="u" horiz-adv-x="819" d="M631 677q8 19 17.5 45t17.5 51q11 30 22 57q5 16 23 36.5t48 15.5q16 -5 42 -19t49.5 -42.5t31.5 -71t-11 -102.5q-8 -25 -23 -65.5t-30 -84.5t-30 -82t-23 -63q-57 -161 -71 -248.5t8 -100.5q3 -3 8 -6q3 -3 5.5 -7t5.5 -6q11 -19 0 -44q-16 -27 -72 -38t-100 22 q-14 8 -22 21.5t-14 27.5q-8 14 -13 30q-8 22 -12.5 42.5t-6.5 36.5q-3 19 0 35q0 35 13 104q-66 -96 -145 -158.5t-161 -48.5q-79 14 -118.5 60t-55.5 101q-19 63 -17 136q3 46 11 95.5t17 87.5q11 46 21 90q27 87 60 176t71 160q30 57 71 117.5t112 84.5q44 16 90.5 2.5 t60.5 -43.5q5 -14 0 -32q-3 -8 -9 -11q-30 -30 -65 -90q-30 -52 -71 -142.5t-87 -229.5q-19 -49 -33 -98q-14 -41 -26 -87.5t-18 -84.5q-11 -66 -7 -100t15 -50q11 -19 28 -19q38 3 79 35.5t82 84.5t77.5 114.5t68 122.5t53.5 109t33 74zM153 66q-38 46 -55 120 q-14 63 -12.5 161t48.5 243q68 216 120 330q27 66 52 109q-35 -35 -71 -101q-30 -55 -69.5 -146t-78.5 -230q-38 -139 -35 -232t23.5 -149t45 -80.5t32.5 -24.5zM658 169q22 101 48 187t50 149q30 74 58 134q-55 -74 -85 -156t-46 -153q-20 -82 -25 -161z" />
<glyph unicode="v" horiz-adv-x="379" d="M743 1324q57 30 106 23.5t84.5 -31t53.5 -57.5t12 -55q-5 -25 -16 -31.5t-25 -6.5t-30 11q-49 14 -106 -27t-120 -116.5t-127 -177.5t-122 -212q-139 -254 -281 -589q-5 -16 -13.5 -30t-13.5 -28q-25 -38 -53.5 -36.5t-61.5 23.5q-30 22 -38 60t-5.5 77.5t9.5 69.5t7 36 q22 79 35.5 139t18.5 82q30 172 38.5 297.5t5.5 210.5q-3 98 -16 169q-3 8 -3 16q0 16 14 30q27 22 74.5 10t77.5 -51q52 -60 61.5 -139t9.5 -150q-5 -153 -24 -292q76 194 144.5 333t126 232t102.5 143.5t75 66.5zM109 429q30 85 47 180q14 82 17.5 190t-26.5 230 q8 -85 9 -180q0 -82 -10 -191t-37 -229zM442 800q120 205 202 307.5t134 148.5q60 49 99 49q-35 11 -72.5 -4t-74 -47.5t-72 -79t-68.5 -95.5q-74 -118 -148 -279z" />
<glyph unicode="w" horiz-adv-x="1239" d="M762 773q14 -11 24 -22q11 -11 20.5 -27.5t15.5 -35.5q5 -25 8 -59t-11 -80q-16 -60 -35 -140.5t-24.5 -147.5t9.5 -101t67 4q74 52 133.5 139t102 189.5t68.5 210.5t34 202t-4 162.5t-45 90.5q-14 8 -25 19q-8 8 -9 21.5t12 33.5q16 16 53 25.5t78 -1.5t76.5 -46.5 t46.5 -103.5q19 -128 -5.5 -270t-77.5 -277.5t-125.5 -251.5t-146.5 -192q-49 -49 -101 -80q-46 -30 -103.5 -46t-117.5 3q-55 16 -83.5 54.5t-42.5 76.5q-14 46 -16 98q-44 -76 -89 -121t-83 -70q-44 -30 -85 -38q-66 -16 -115 0t-84.5 53t-56 82t-22.5 86q-5 71 4 146 t31 146q30 96 78 184.5t116 170.5q46 60 112 116t156 70q19 3 46 3t53 -7t44 -19.5t18 -31.5q0 -14 -14 -27q-8 -5 -13 -8q-66 -33 -116.5 -83.5t-91.5 -108t-71 -119t-55 -115.5q-27 -63 -46 -131.5t-22 -136.5v-34t5.5 -52t19 -45t41.5 -14q52 27 109 99 q49 60 107.5 170.5t119.5 296.5q11 41 27 68q14 22 38.5 33t62.5 -11zM153 603q55 104 102.5 175t85.5 118q44 49 85 82q-57 -35 -115 -91q-49 -46 -105 -124t-102 -192q-38 -93 -49 -181q-11 -76 0 -156.5t68 -143.5q-27 71 -38 153q-8 71 2.5 163.5t65.5 196.5zM1133 347 q90 177 130 304t53 212q14 98 0 166q-5 -131 -35 -252.5t-63 -216.5q-39 -112 -85 -213z" />
<glyph unicode="x" horiz-adv-x="557" d="M393 601q5 -46 14 -90q5 -38 13.5 -78t13.5 -67q16 -63 37 -136.5t51 -150.5q5 -22 -2 -33t-15 -19q-11 -11 -24 -13q-22 -8 -40 -9.5t-31 0.5q-16 3 -33 9q-38 14 -60 43.5t-33 51.5q-8 22 -15 45t-15 48q-19 60 -38 139q-22 -30 -45.5 -64t-50.5 -69q-25 -30 -52 -41 t-51.5 -11t-42.5 8t-26 16q-14 22 -3 40t20 28q57 49 114.5 108t106.5 125q-19 87 -30 180t-11 172q-3 63 6.5 138t61.5 132q30 38 78 53t75 -6q14 -11 14 -28q0 -8 -3 -13q-8 -27 -14 -74q-5 -38 -5 -102.5t11 -156.5q145 268 245.5 396t155.5 152q60 30 109 23.5t80.5 -31 t46.5 -57.5t7 -55q-5 -25 -16 -31.5t-25 -6.5t-30 11q-49 16 -114.5 -29t-138 -128t-149 -193.5t-147.5 -225.5zM218 1027q-22 -38 -30 -101q-8 -55 -2.5 -137t38.5 -205q-8 74 -14 151q-5 66 -4 143.5t12 148.5zM423 800q137 202 229.5 306t147.5 150q66 49 101 49 q-33 11 -72.5 -4t-79 -47.5t-79 -79t-75.5 -95.5q-87 -118 -172 -279z" />
<glyph unicode="y" horiz-adv-x="805" d="M658 800q3 11 1.5 19t-1.5 14q-3 8 -3 14q-3 8 0 16q5 16 22 27q30 16 74 -4t65 -67q38 -68 23.5 -144.5t-31.5 -144.5q-27 -120 -95.5 -312.5t-190.5 -405.5q106 14 212.5 16.5t206 -6t184.5 -29t145 -55.5q30 -16 54 -41q22 -22 38.5 -49.5t21.5 -65.5q3 -25 -2 -43 q-5 -16 -13.5 -30t-30.5 -11q-19 3 -27 11t-14 16q-5 8 -12 13.5t-13 8.5q-22 8 -69.5 23t-122.5 28.5t-183 20.5t-247 4q-63 -3 -121.5 -5.5t-118.5 -7.5q-52 -79 -109.5 -149t-123 -120.5t-138 -78t-151.5 -21.5q-8 0 -19 3q-8 3 -19 4t-22 7q-33 14 -48 37t-18 31 q-8 25 -9 60t18 76t62.5 87.5t122.5 98.5q112 68 290 115q27 52 72 147.5t94 209.5q-55 -55 -110.5 -84.5t-113.5 -18.5q-79 14 -117 60t-55 101q-19 63 -16 136q0 46 8 95.5t17 87.5q11 46 24 90q52 164 100 254t86 137q44 52 82 65q44 16 90 2.5t60 -43.5q5 -14 0 -32 q-3 -8 -8 -11q-16 -5 -44 -49q-22 -38 -56 -115t-80 -216q-19 -49 -33 -98q-14 -41 -26 -87.5t-18 -84.5q-11 -66 -7 -100t15 -50q11 -19 30 -19q49 3 105 60t106.5 136t94.5 162.5t68 138.5q22 63 30.5 103.5t13.5 62.5zM46 240q14 104 44 221q25 101 71.5 229.5 t117.5 270.5q-68 -93 -121 -202q-46 -96 -81.5 -227t-30.5 -292zM-145 -625q16 -5 42.5 -8t60.5 13.5t76 58.5t97 121q-87 -27 -157 -70.5t-119 -114.5zM538 -74q52 90 93 190t71 184q33 98 57 197q-44 -106 -83.5 -210t-69.5 -183zM598 -229q186 5 314 -7t208 -29 q93 -22 152 -49q-85 57 -199.5 76.5t-220.5 21.5q-126 3 -254 -13z" />
<glyph unicode="z" horiz-adv-x="453" d="M385 161q-11 -35 -25 -74q-14 -33 -31.5 -77.5t-41.5 -91.5q106 14 214 16.5t206.5 -5.5t183 -28.5t147.5 -56.5q27 -16 52 -41q22 -22 38 -49t22 -65q3 -25 -3 -44q-5 -16 -13.5 -30t-30.5 -11q-19 3 -27 11t-14 16q-8 14 -22 22q-22 8 -69.5 23t-124 29t-183 20.5 t-248.5 4.5l-120 -6t-120 -8q-49 -79 -108 -148.5t-124.5 -120t-138 -78t-151.5 -22.5q-8 0 -19 3q-8 3 -19 4.5t-22 6.5q-33 14 -46.5 37t-18.5 31q-8 25 -9.5 60.5t17.5 76.5t62.5 87.5t125.5 98.5q106 68 287 114q109 221 157 370t57.5 242t-5.5 139.5t-29 62.5 q-8 11 -8 23t3 26t8 27q8 22 30 50q16 22 47.5 49t83.5 57q11 5 26 13.5t29 16.5q16 11 32 19q14 5 16.5 12t2.5 10q0 5 -10 16q-14 14 -42.5 19.5t-58.5 5.5q-25 -3 -44 5q-63 -87 -128.5 -163.5t-120.5 -139.5q-5 -5 -16 -9t-11 31q3 30 15 72.5t21 64.5q0 3 2 5 q3 3 3 4.5t5 6.5q27 30 61.5 68.5t70.5 84.5q-57 27 -68.5 84.5t6.5 126t57.5 136.5t87.5 116t95.5 65.5t80.5 -17.5t37 -86t-14 -111t-52 -125.5t-78 -133.5q30 -3 56 -1.5t43 3.5q19 3 33 6q5 3 25.5 7t42.5 -2q41 -8 68 -54q11 -22 16 -49q5 -22 4 -53.5t-17 -69.5 q-11 -27 -33 -60t-60 -60q-44 -25 -89 -36t-75 -16q-11 -3 -24 -3h-9q5 -8 11 -16.5t11 -16.5q71 -120 65.5 -259.5t-43.5 -267.5zM295 1166q38 55 66.5 106.5t39.5 95.5q14 55 -3.5 46.5t-42.5 -48t-46.5 -97t-13.5 -103.5zM309 702q46 -104 51.5 -220t-8.5 -217 q-16 -117 -52 -232q71 183 82 311t-5 208q-19 93 -68 150zM-377 -519q16 -5 41 -8t59 13.5t76.5 59t96.5 121.5q-87 -27 -157 -71t-116 -115zM363 -123q186 5 314.5 -7t207.5 -28q93 -22 153 -50q-85 57 -199.5 76.5t-221.5 22.5q-126 2 -254 -14z" />
<glyph unicode="&#xa2;" horiz-adv-x="1706" d="M1578 1925q14 -35 15.5 -96.5t-26.5 -154.5q-3 -5 -2.5 -6.5t-2.5 -7.5q-22 -57 -56 -90t-72 -24q-33 8 -44 46q-5 19 -2.5 38t7.5 33q25 87 33 152.5t8 93.5q0 35 -79 19l-890 -2420q14 -14 26 -22t20 -13q11 -8 19 -8q87 -44 191 -53.5t213.5 15t218.5 80.5t208 141 q19 14 30 16q11 3 17.5 -5.5t1.5 -38.5q-11 -60 -48 -110.5t-92 -85.5q-68 -44 -126.5 -76.5t-121.5 -53t-136.5 -27.5t-172.5 -2q-109 5 -166 17.5t-60 15.5q-22 5 -44 12t-44 21l-41 -107q-14 -35 -49 -35q-14 0 -19 3q-52 19 -33 71l47 123q-79 55 -150 153t-105.5 257.5 t-18 387.5t112.5 542q85 273 185.5 478t207 352.5t210.5 243t197 155.5t166.5 87.5t117.5 38.5q8 0 19 2q8 3 21.5 3t27.5 3l33 87q8 22 28.5 30.5t42.5 -0.5q22 -5 31.5 -25.5t1.5 -42.5l-25 -63q27 -5 46.5 -14.5t35.5 -20.5q0 -3 3 -3q16 -14 43 -41t41 -71zM199 494 q16 71 35.5 138t41.5 130q22 66 45 127t45 119q49 117 97 212.5t86 163.5q19 35 34 61.5t29 45.5q5 8 9 15t7 12q3 3 3 4.5t3 3.5q0 3 2 3q-30 -38 -56 -73.5t-53 -73.5q-49 -74 -90 -148q-5 -8 -10.5 -17.5t-11.5 -20.5q-5 -8 -9.5 -16.5t-9.5 -18.5q-5 -8 -9.5 -18 t-9.5 -18q-8 -19 -19 -38q-5 -8 -8 -18t-9 -18q-5 -8 -8 -17.5t-8 -17.5q-5 -14 -16 -36q-3 -8 -9 -19l-8 -16q-30 -71 -53 -139.5t-42 -133.5q-19 -63 -31.5 -124.5t-23.5 -116.5q-19 -112 -23 -199t-2 -147v-30v-25q3 -11 3 -20.5v-17.5t1.5 -13.5t1.5 -11.5v-8 q8 126 24 262q11 68 23.5 136.5t28.5 136.5zM1221 1879q-71 -38 -158.5 -109.5t-182 -187.5t-194 -279.5t-192.5 -387.5q-120 -287 -167.5 -502.5t-50.5 -374t31 -265t78 -172.5z" />
<glyph unicode="&#xa3;" horiz-adv-x="1794" d="M2163 1922q14 -38 15 -99.5t-26 -156.5q-3 -3 -3 -8q-22 -55 -54.5 -86.5t-71.5 -23.5q-22 5 -31.5 20.5t-14.5 34.5q-5 33 0 46q27 96 35.5 163t8.5 94q0 19 -41 23t-109.5 -23t-161 -92.5t-198 -184.5t-216 -299t-216.5 -434q-16 -38 -33 -82h210q22 0 37 -15t15 -37 t-15 -37t-37 -15h-246q-8 -25 -16 -49.5t-14 -51.5h205q22 0 35.5 -15t13.5 -37t-13.5 -35.5t-35.5 -13.5h-235q-41 -147 -73.5 -301.5t-56 -295t-35.5 -256.5t-12 -187q66 5 138 6.5t151 3.5q41 3 88 0q38 -3 83 -11t83 -21q41 -19 60 -53.5t24.5 -70t-2.5 -65.5t-19 -41 q-16 -19 -32.5 -15t-24.5 10q-8 11 -28 19q-30 11 -91.5 24.5t-195 12t-357.5 -22t-576 -77.5h-19q-22 0 -22 17q0 35 11 68q8 30 24.5 64t48.5 64q5 3 11 8q5 3 11 6t17 5q38 5 132 20.5t234 28.5q-3 71 3.5 183t24.5 251.5t48 298t74 327.5h-213q-22 0 -37 13.5t-15 35.5 t15 37t37 15h243q5 25 13.5 49.5t13.5 48.5q3 0 3 3h-202q-22 0 -37 15t-15 37t15 37t37 15h237q87 254 187 443.5t202.5 327.5t202 228t187 146t155.5 83.5t112 38.5q16 3 38 5q35 5 85 0q90 -11 139 -49h3q16 -14 43.5 -41.5t41.5 -73.5zM1764 1982q5 3 9.5 4.5t6.5 4.5 q3 3 6 2q-93 -25 -194 -79q-90 -52 -180 -128q-41 -38 -79.5 -79t-70.5 -82q-35 -44 -65.5 -87.5t-55.5 -84.5q-52 -87 -88.5 -162.5t-58.5 -132.5q-25 -63 -33 -93q-8 -16 -8 -25q-3 -3 -3 -5v-3q5 16 13.5 32.5t16.5 33.5q8 14 16.5 30t16.5 30q16 30 32.5 60t33.5 57 q66 112 136 210q35 46 68 90t69 83q35 38 68 70.5t63 62.5q63 57 119 95.5t96 63.5q5 0 11 5l11 6l17 8q8 5 15 7.5t12 5.5z" />
<glyph unicode="&#xa8;" horiz-adv-x="524" d="M270 1346q22 -8 27.5 -23t2.5 -29q-3 -5 -5.5 -10.5t-5.5 -11.5q-5 -5 -8 -10q-30 -30 -49 -65.5t-27 -55.5q-8 -14 -28.5 -41t-48.5 -19q-22 11 -34 20.5t-20 23.5q-5 8 -5.5 24.5t3.5 31.5t8.5 27.5t4.5 17.5q5 16 8 24.5t5 16.5q27 68 82 83t90 -4zM96 1163 q25 71 60 115q16 25 38 44q-27 -5 -45 -28.5t-32 -53.5q-13 -33 -21 -77zM445 1259q22 -8 27.5 -23t2.5 -29q-3 -5 -5.5 -10.5t-5.5 -11.5q-5 -5 -8 -11q-30 -30 -49 -65.5t-27 -54.5q-8 -14 -29 -41t-48 -19q-22 11 -34 20.5t-21 23.5q-5 8 -5 24.5t4 31.5t8 27t4 18 q5 16 8 24t6 17q27 68 82 83t90 -4zM270 1076q25 71 60 115q16 25 39 43q-27 -5 -45 -28.5t-32 -53.5q-14 -32 -22 -76z" />
<glyph unicode="&#xad;" horiz-adv-x="955" d="M797 579q-14 -30 -39.5 -50.5t-63.5 -26.5q-101 3 -199.5 -1t-246.5 -4q-55 0 -75 16.5t-23 38.5q-3 25 11 54q19 41 60 79q5 5 11 9q8 5 27 8q46 3 170.5 7t315.5 -10q27 -5 44 -19q14 -14 20.5 -37t-12.5 -64z" />
<glyph unicode="&#xb4;" horiz-adv-x="595" d="M295 1106q-8 11 -16.5 19t-13.5 16q-11 -3 -41 -2l-49 2h-23t-37 3t-37 7t-26 12q-14 14 -22 27.5t-14 35.5q0 25 38.5 34.5t57.5 11.5q25 3 71 8.5t93 19.5q5 0 13 3t30 2q33 0 47 -33q3 -8 11 -16q3 -3 3 -5q22 -41 46.5 -79.5t40.5 -57.5q5 -8 15 -21.5t16.5 -28.5 t8 -30t-6.5 -24q-41 -22 -69 -13q-14 0 -28.5 9.5t-29.5 23t-26 24.5t-14 16zM399 1038q-30 33 -53.5 64t-36.5 59q-16 30 -30 57q-8 -22 9.5 -52t41.5 -60q31 -33 69 -68z" />
<glyph unicode="&#xc0;" horiz-adv-x="3102" d="M3446 2392q27 38 71 19q22 -11 30 -16t14 -8q38 -35 83 -62.5t69 -41.5q8 -5 24.5 -14.5t30.5 -22t22 -26t3 -27.5q-30 -38 -66 -46q-11 -5 -31.5 -1.5t-41 9t-38 12.5t-23.5 10q-22 8 -31.5 12t-22.5 9q-44 19 -70 45t-35.5 53.5t-5.5 53.5t18 42zM3678 2177 q-46 19 -84.5 42t-65.5 42q-30 22 -58 44q3 -27 36 -50.5t71 -39.5q46 -22 101 -38zM3591 1966q-3 -5 -11 -16q-16 -22 -30 -36q-8 -8 -58.5 -71t-132.5 -205t-192.5 -375.5t-239.5 -582.5q115 -16 142.5 -75t13.5 -135q-11 -66 -28.5 -89t-37.5 -26q-22 -3 -46 14 q-8 22 -45 31.5t-92 11.5q-93 -284 -124 -464t-24.5 -286.5t42 -153t76.5 -65.5t79.5 -26t51.5 -29q22 -38 -6.5 -62.5t-61.5 -38.5q-22 -5 -42.5 -6.5t-39.5 1.5q-22 3 -41 8q-134 41 -198 146t-77.5 252.5t16.5 328t87 373.5q-52 -5 -95.5 -13t-78.5 -14q-41 -8 -77 -13 q-259 -57 -491 -66q-175 -131 -358 -233.5t-367.5 -160t-368.5 -61.5t-359 59q-134 55 -202 156q-30 44 -45 101t-8.5 132t42 169.5t112.5 208.5q30 46 75 61.5t86 9.5q49 -5 98 -24q352 -128 650 -169t546 -31q183 131 359 283t338.5 304.5t304.5 301.5t254 273.5 t191.5 217t117.5 136.5l27 27t45 35.5t59 23.5t68 -4q142 -44 96 -134zM3001 1469q-164 -208 -378.5 -449.5t-465.5 -467.5q66 14 127.5 28.5t115.5 28.5q76 19 140.5 32.5t119.5 24.5q22 63 46.5 124.5t48.5 121.5q63 161 126 299t120 258zM431 576q-74 -106 -105 -185.5 t-32.5 -136.5t22 -95.5t58.5 -62.5q85 -57 240 -58q183 -5 385 63t410 191q-227 22 -407 70t-308 94q-151 54 -263 120zM532 -101q199 -41 381 -4t324 97q164 71 309 172q-194 -112 -375.5 -166.5t-323.5 -76.5q-168 -27 -315 -22zM3012 590q-49 38 -134 41t-196.5 -15 t-248.5 -52t-287 -67q-175 -38 -342.5 -46.5t-301.5 -2.5q-156 8 -298 30q158 -49 325 -61.5t329.5 0t315.5 44t286 69.5q164 46 270.5 59.5t169.5 13.5q74 1 112 -13zM2903 759q90 284 187 494.5t179 349.5q96 164 188 278q-172 -180 -278.5 -375t-169.5 -362 q-71 -194 -106 -385z" />
<glyph unicode="&#xc1;" horiz-adv-x="3102" d="M3648 2160q-8 11 -16.5 19t-13.5 16q-11 -3 -41 -2l-49 2h-23t-37 3t-37 7t-26 12q-14 14 -22 27.5t-14 35.5q0 25 38.5 34.5t57.5 11.5q25 3 71 8.5t93 19.5q5 0 13 3t30 2q33 0 47 -33q3 -8 11 -16q3 -3 3 -5q22 -41 46.5 -79.5t40.5 -57.5q5 -8 15 -21.5t16.5 -28.5 t8 -30t-6.5 -24q-41 -22 -69 -13q-14 0 -28.5 9.5t-29.5 23t-26 24.5t-14 16zM3752 2092q-30 33 -53.5 64t-36.5 59q-16 30 -30 57q-8 -22 9.5 -52t41.5 -60q31 -33 69 -68zM3591 1966q-3 -5 -11 -16q-16 -22 -30 -36q-8 -8 -58.5 -71t-132.5 -205t-192.5 -375.5 t-239.5 -582.5q115 -16 142.5 -75t13.5 -135q-11 -66 -28.5 -89t-37.5 -26q-22 -3 -46 14q-8 22 -45 31.5t-92 11.5q-93 -284 -124 -464t-24.5 -286.5t42 -153t76.5 -65.5t79.5 -26t51.5 -29q22 -38 -6.5 -62.5t-61.5 -38.5q-22 -5 -42.5 -6.5t-39.5 1.5q-22 3 -41 8 q-134 41 -198 146t-77.5 252.5t16.5 328t87 373.5q-52 -5 -95.5 -13t-78.5 -14q-41 -8 -77 -13q-259 -57 -491 -66q-175 -131 -358 -233.5t-367.5 -160t-368.5 -61.5t-359 59q-134 55 -202 156q-30 44 -45 101t-8.5 132t42 169.5t112.5 208.5q30 46 75 61.5t86 9.5 q49 -5 98 -24q352 -128 650 -169t546 -31q183 131 359 283t338.5 304.5t304.5 301.5t254 273.5t191.5 217t117.5 136.5l27 27t45 35.5t59 23.5t68 -4q142 -44 96 -134zM3001 1469q-164 -208 -378.5 -449.5t-465.5 -467.5q66 14 127.5 28.5t115.5 28.5q76 19 140.5 32.5 t119.5 24.5q22 63 46.5 124.5t48.5 121.5q63 161 126 299t120 258zM431 576q-74 -106 -105 -185.5t-32.5 -136.5t22 -95.5t58.5 -62.5q85 -57 240 -58q183 -5 385 63t410 191q-227 22 -407 70t-308 94q-151 54 -263 120zM532 -101q199 -41 381 -4t324 97q164 71 309 172 q-194 -112 -375.5 -166.5t-323.5 -76.5q-168 -27 -315 -22zM3012 590q-49 38 -134 41t-196.5 -15t-248.5 -52t-287 -67q-175 -38 -342.5 -46.5t-301.5 -2.5q-156 8 -298 30q158 -49 325 -61.5t329.5 0t315.5 44t286 69.5q164 46 270.5 59.5t169.5 13.5q74 1 112 -13z M2903 759q90 284 187 494.5t179 349.5q96 164 188 278q-172 -180 -278.5 -375t-169.5 -362q-71 -194 -106 -385z" />
<glyph unicode="&#xc2;" horiz-adv-x="3102" d="M3446 2375q27 38 71 19q22 -11 30 -16t14 -8q38 -35 83 -62.5t69 -41.5q8 -5 24.5 -14.5t30.5 -22t22 -26t3 -27.5q-30 -38 -66 -46q-11 -5 -31.5 -1.5t-41 9t-38 12.5t-23.5 10q-22 8 -31.5 12t-22.5 9q-44 19 -70 45t-35.5 53.5t-5.5 53.5t18 42zM3678 2160 q-46 19 -84.5 42t-65.5 42q-30 22 -58 44q3 -27 36 -50.5t71 -39.5q46 -22 101 -38zM3591 1966q-3 -5 -11 -16q-16 -22 -30 -36q-8 -8 -58.5 -71t-132.5 -205t-192.5 -375.5t-239.5 -582.5q115 -16 142.5 -75t13.5 -135q-11 -66 -28.5 -89t-37.5 -26q-22 -3 -46 14 q-8 22 -45 31.5t-92 11.5q-93 -284 -124 -464t-24.5 -286.5t42 -153t76.5 -65.5t79.5 -26t51.5 -29q22 -38 -6.5 -62.5t-61.5 -38.5q-22 -5 -42.5 -6.5t-39.5 1.5q-22 3 -41 8q-134 41 -198 146t-77.5 252.5t16.5 328t87 373.5q-52 -5 -95.5 -13t-78.5 -14q-41 -8 -77 -13 q-259 -57 -491 -66q-175 -131 -358 -233.5t-367.5 -160t-368.5 -61.5t-359 59q-134 55 -202 156q-30 44 -45 101t-8.5 132t42 169.5t112.5 208.5q30 46 75 61.5t86 9.5q49 -5 98 -24q352 -128 650 -169t546 -31q183 131 359 283t338.5 304.5t304.5 301.5t254 273.5 t191.5 217t117.5 136.5l27 27t45 35.5t59 23.5t68 -4q142 -44 96 -134zM3001 1469q-164 -208 -378.5 -449.5t-465.5 -467.5q66 14 127.5 28.5t115.5 28.5q76 19 140.5 32.5t119.5 24.5q22 63 46.5 124.5t48.5 121.5q63 161 126 299t120 258zM431 576q-74 -106 -105 -185.5 t-32.5 -136.5t22 -95.5t58.5 -62.5q85 -57 240 -58q183 -5 385 63t410 191q-227 22 -407 70t-308 94q-151 54 -263 120zM532 -101q199 -41 381 -4t324 97q164 71 309 172q-194 -112 -375.5 -166.5t-323.5 -76.5q-168 -27 -315 -22zM3012 590q-49 38 -134 41t-196.5 -15 t-248.5 -52t-287 -67q-175 -38 -342.5 -46.5t-301.5 -2.5q-156 8 -298 30q158 -49 325 -61.5t329.5 0t315.5 44t286 69.5q164 46 270.5 59.5t169.5 13.5q74 1 112 -13zM2903 759q90 284 187 494.5t179 349.5q96 164 188 278q-172 -180 -278.5 -375t-169.5 -362 q-71 -194 -106 -385z" />
<glyph unicode="&#xc3;" horiz-adv-x="3102" d="M3522 2291q-55 55 -101 75.5t-46 39.5q0 22 24.5 33t35.5 11q27 5 54.5 -0.5t32.5 -8.5q46 -19 67 -40.5t35 -32.5q30 -27 58.5 -45t50.5 -30.5t35.5 -26t13.5 -32.5q0 -22 -26 -33t-34 -11h-29t-42.5 9.5t-57.5 30t-71 61.5zM3460 2425q33 -14 60 -31.5t46 -31.5 q22 -16 41 -33q-3 22 -24.5 38.5t-49.5 30.5q-29 13 -73 27zM3591 1966q-3 -5 -11 -16q-16 -22 -30 -36q-8 -8 -58.5 -71t-132.5 -205t-192.5 -375.5t-239.5 -582.5q115 -16 142.5 -75t13.5 -135q-11 -66 -28.5 -89t-37.5 -26q-22 -3 -46 14q-8 22 -45 31.5t-92 11.5 q-93 -284 -124 -464t-24.5 -286.5t42 -153t76.5 -65.5t79.5 -26t51.5 -29q22 -38 -6.5 -62.5t-61.5 -38.5q-22 -5 -42.5 -6.5t-39.5 1.5q-22 3 -41 8q-134 41 -198 146t-77.5 252.5t16.5 328t87 373.5q-52 -5 -95.5 -13t-78.5 -14q-41 -8 -77 -13q-259 -57 -491 -66 q-175 -131 -358 -233.5t-367.5 -160t-368.5 -61.5t-359 59q-134 55 -202 156q-30 44 -45 101t-8.5 132t42 169.5t112.5 208.5q30 46 75 61.5t86 9.5q49 -5 98 -24q352 -128 650 -169t546 -31q183 131 359 283t338.5 304.5t304.5 301.5t254 273.5t191.5 217t117.5 136.5 l27 27t45 35.5t59 23.5t68 -4q142 -44 96 -134zM3001 1469q-164 -208 -378.5 -449.5t-465.5 -467.5q66 14 127.5 28.5t115.5 28.5q76 19 140.5 32.5t119.5 24.5q22 63 46.5 124.5t48.5 121.5q63 161 126 299t120 258zM431 576q-74 -106 -105 -185.5t-32.5 -136.5t22 -95.5 t58.5 -62.5q85 -57 240 -58q183 -5 385 63t410 191q-227 22 -407 70t-308 94q-151 54 -263 120zM532 -101q199 -41 381 -4t324 97q164 71 309 172q-194 -112 -375.5 -166.5t-323.5 -76.5q-168 -27 -315 -22zM3012 590q-49 38 -134 41t-196.5 -15t-248.5 -52t-287 -67 q-175 -38 -342.5 -46.5t-301.5 -2.5q-156 8 -298 30q158 -49 325 -61.5t329.5 0t315.5 44t286 69.5q164 46 270.5 59.5t169.5 13.5q74 1 112 -13zM2903 759q90 284 187 494.5t179 349.5q96 164 188 278q-172 -180 -278.5 -375t-169.5 -362q-71 -194 -106 -385z" />
<glyph unicode="&#xc4;" horiz-adv-x="3102" d="M3702 2449q22 -8 27.5 -23t2.5 -29q-3 -5 -5.5 -10.5t-5.5 -11.5q-5 -5 -8 -10q-30 -30 -49 -65.5t-27 -55.5q-8 -14 -28.5 -41t-48.5 -19q-22 11 -34 20.5t-20 23.5q-5 8 -5.5 24.5t3.5 31.5t8.5 27.5t4.5 17.5q5 16 8 24.5t5 16.5q27 68 82 83t90 -4zM3528 2266 q25 71 60 115q16 25 38 44q-27 -5 -45 -28.5t-32 -53.5q-13 -33 -21 -77zM3877 2362q22 -8 27.5 -23t2.5 -29q-3 -5 -5.5 -10.5t-5.5 -11.5q-5 -5 -8 -11q-30 -30 -49 -65.5t-27 -54.5q-8 -14 -29 -41t-48 -19q-22 11 -34 20.5t-21 23.5q-5 8 -5 24.5t4 31.5t8 27t4 18 q5 16 8 24t6 17q27 68 82 83t90 -4zM3702 2179q25 71 60 115q16 25 39 43q-27 -5 -45 -28.5t-32 -53.5q-14 -32 -22 -76zM3591 1966q-3 -5 -11 -16q-16 -22 -30 -36q-8 -8 -58.5 -71t-132.5 -205t-192.5 -375.5t-239.5 -582.5q115 -16 142.5 -75t13.5 -135 q-11 -66 -28.5 -89t-37.5 -26q-22 -3 -46 14q-8 22 -45 31.5t-92 11.5q-93 -284 -124 -464t-24.5 -286.5t42 -153t76.5 -65.5t79.5 -26t51.5 -29q22 -38 -6.5 -62.5t-61.5 -38.5q-22 -5 -42.5 -6.5t-39.5 1.5q-22 3 -41 8q-134 41 -198 146t-77.5 252.5t16.5 328t87 373.5 q-52 -5 -95.5 -13t-78.5 -14q-41 -8 -77 -13q-259 -57 -491 -66q-175 -131 -358 -233.5t-367.5 -160t-368.5 -61.5t-359 59q-134 55 -202 156q-30 44 -45 101t-8.5 132t42 169.5t112.5 208.5q30 46 75 61.5t86 9.5q49 -5 98 -24q352 -128 650 -169t546 -31q183 131 359 283 t338.5 304.5t304.5 301.5t254 273.5t191.5 217t117.5 136.5l27 27t45 35.5t59 23.5t68 -4q142 -44 96 -134zM3001 1469q-164 -208 -378.5 -449.5t-465.5 -467.5q66 14 127.5 28.5t115.5 28.5q76 19 140.5 32.5t119.5 24.5q22 63 46.5 124.5t48.5 121.5q63 161 126 299 t120 258zM431 576q-74 -106 -105 -185.5t-32.5 -136.5t22 -95.5t58.5 -62.5q85 -57 240 -58q183 -5 385 63t410 191q-227 22 -407 70t-308 94q-151 54 -263 120zM532 -101q199 -41 381 -4t324 97q164 71 309 172q-194 -112 -375.5 -166.5t-323.5 -76.5q-168 -27 -315 -22z M3012 590q-49 38 -134 41t-196.5 -15t-248.5 -52t-287 -67q-175 -38 -342.5 -46.5t-301.5 -2.5q-156 8 -298 30q158 -49 325 -61.5t329.5 0t315.5 44t286 69.5q164 46 270.5 59.5t169.5 13.5q74 1 112 -13zM2903 759q90 284 187 494.5t179 349.5q96 164 188 278 q-172 -180 -278.5 -375t-169.5 -362q-71 -194 -106 -385z" />
<glyph unicode="&#xc5;" horiz-adv-x="3102" d="M3703 2365q35 -8 50 -44t2 -79q-14 -49 -45.5 -76.5t-99.5 -13.5q-30 5 -42.5 23t-15 38.5t0 39.5t5.5 27q14 55 53.5 78t91.5 7zM3667 2294q-38 8 -46 -28q-3 -5 -3 -21.5t19 -21.5q38 -5 47 30q8 33 -17 41zM3591 1966q-3 -5 -11 -16q-16 -22 -30 -36q-8 -8 -58.5 -71 t-132.5 -205t-192.5 -375.5t-239.5 -582.5q115 -16 142.5 -75t13.5 -135q-11 -66 -28.5 -89t-37.5 -26q-22 -3 -46 14q-8 22 -45 31.5t-92 11.5q-93 -284 -124 -464t-24.5 -286.5t42 -153t76.5 -65.5t79.5 -26t51.5 -29q22 -38 -6.5 -62.5t-61.5 -38.5q-22 -5 -42.5 -6.5 t-39.5 1.5q-22 3 -41 8q-134 41 -198 146t-77.5 252.5t16.5 328t87 373.5q-52 -5 -95.5 -13t-78.5 -14q-41 -8 -77 -13q-259 -57 -491 -66q-175 -131 -358 -233.5t-367.5 -160t-368.5 -61.5t-359 59q-134 55 -202 156q-30 44 -45 101t-8.5 132t42 169.5t112.5 208.5 q30 46 75 61.5t86 9.5q49 -5 98 -24q352 -128 650 -169t546 -31q183 131 359 283t338.5 304.5t304.5 301.5t254 273.5t191.5 217t117.5 136.5l27 27t45 35.5t59 23.5t68 -4q142 -44 96 -134zM3001 1469q-164 -208 -378.5 -449.5t-465.5 -467.5q66 14 127.5 28.5t115.5 28.5 q76 19 140.5 32.5t119.5 24.5q22 63 46.5 124.5t48.5 121.5q63 161 126 299t120 258zM431 576q-74 -106 -105 -185.5t-32.5 -136.5t22 -95.5t58.5 -62.5q85 -57 240 -58q183 -5 385 63t410 191q-227 22 -407 70t-308 94q-151 54 -263 120zM532 -101q199 -41 381 -4t324 97 q164 71 309 172q-194 -112 -375.5 -166.5t-323.5 -76.5q-168 -27 -315 -22zM3012 590q-49 38 -134 41t-196.5 -15t-248.5 -52t-287 -67q-175 -38 -342.5 -46.5t-301.5 -2.5q-156 8 -298 30q158 -49 325 -61.5t329.5 0t315.5 44t286 69.5q164 46 270.5 59.5t169.5 13.5 q74 1 112 -13zM2903 759q90 284 187 494.5t179 349.5q96 164 188 278q-172 -180 -278.5 -375t-169.5 -362q-71 -194 -106 -385z" />
<glyph unicode="&#xc8;" horiz-adv-x="1990" d="M1876 2490q27 38 71 19q22 -11 30 -16t14 -8q38 -35 83 -62.5t69 -41.5q8 -5 24.5 -14.5t30.5 -22t22 -26t3 -27.5q-30 -38 -66 -46q-11 -5 -31.5 -1.5t-41 9t-38 12.5t-23.5 10q-22 8 -31.5 12t-22.5 9q-44 19 -70 45t-35.5 53.5t-5.5 53.5t18 42zM2108 2275 q-46 19 -84.5 42t-65.5 42q-30 22 -58 44q3 -27 36 -50.5t71 -39.5q46 -22 101 -38zM2753 1887q0 -25 -3 -49q-3 -22 -10 -44t-23 -44q-19 -22 -43.5 -24.5t-52.5 30.5q-14 16 -56 46t-136 48t-247 12.5t-382 -62.5q-71 -101 -147.5 -231t-149 -262.5t-134 -252.5 t-102.5 -202q96 35 192.5 57t200.5 30q33 3 82 4.5t99.5 -2.5t93 -20.5t61.5 -52.5q16 -30 8 -62.5t-27 -62.5q-22 -30 -64 -38.5t-78 -5.5q-180 16 -342.5 1t-337.5 -80q-101 -213 -168 -377t-108 -287t-60 -210t-22 -145q-11 -137 47 -172q123 -46 263.5 -27t284 75 t280 135t247 151.5t185.5 126t100 58.5t35.5 -5.5t12 -28.5t-2.5 -42.5t-10 -43.5q-5 -16 -16 -33q-8 -14 -22 -33t-36 -38q-90 -82 -218 -177.5t-292 -168t-360.5 -101t-426.5 20.5q-123 27 -180 116t-64 223t30 303t104 355t154 379.5t183 376.5t188.5 347t171.5 292 q-265 -98 -441 -192t-283.5 -183t-158 -169.5t-64.5 -153t-1.5 -134t31.5 -109t32.5 -80.5t2.5 -49q-22 -30 -61.5 -23.5t-66.5 31.5q-22 16 -34 36.5t-23 40.5q-11 22 -19 46q-41 139 -18 262t91.5 228t170.5 195t221 164t246 131.5t242 100.5q8 5 16 6.5t16 7.5 q55 22 122 46.5t146 49.5l16 24q27 35 63 63q30 22 75 41t103 19q22 0 41 -6q16 -5 29.5 -14.5t19.5 -25.5q142 35 280 53t247 5.5t179 -63t78 -151.5zM1281 -683q-5 -3 -14 -2q-3 0 -5 -3q74 8 158 30q87 27 161 57q79 35 154 76.5t138 84.5q63 46 113.5 86t88.5 73 q19 14 33 27.5t22 21.5l8 8t8 6l3 5q-22 -16 -44 -32.5t-43 -33.5q-22 -14 -44 -28.5t-44 -28.5q-44 -30 -84.5 -56t-79.5 -48q-79 -46 -148.5 -83t-132.5 -67q-14 -5 -29 -12t-28 -12q-8 -3 -15 -6t-12 -5q-5 -3 -7 -3t-7 -3q-3 -3 -5.5 -3t-5.5 -2q-14 -5 -25 -8t-21 -9 q-11 -5 -21 -6.5t-18 -6.5q-11 -3 -17.5 -4.5t-14.5 -3.5q-17 -6 -22 -9zM1458 1543q5 11 9.5 20.5t9.5 14.5q3 8 6 11q-30 -46 -60 -94t-60 -94t-56 -94t-54 -95q-55 -93 -101 -180t-90 -175q-172 -339 -259 -611q-25 -68 -41 -126q-8 -30 -16.5 -57.5t-13.5 -54.5 t-9.5 -53t-9.5 -48t-6.5 -42.5t-4.5 -39.5q-5 -38 -4 -66.5t1 -50.5q0 -11 3 -17v-10q0 -5 1.5 -5.5t1.5 -3.5v-2q-3 19 -1.5 38t3.5 41q0 14 3 19v11q0 3 1.5 4t1.5 4q0 5 1 10.5t1 11.5q0 5 1.5 9.5t1.5 9.5l3 11l3 8q0 5 1 10.5t1 11.5q3 5 3 9.5t3 9.5q0 5 5 22 q5 27 11 41q0 8 6 19q0 8 5 19q14 41 26 82t26 85q14 41 30 82t33 81q33 79 67 160t69 160q5 14 12 29t16 28q16 41 35 80q19 41 38 81.5t39 81.5q68 139 128 259.5t106 207.5q25 44 42.5 78t31.5 59zM1475 1819q5 3 9 4t7 4t5 3q-11 -5 -21.5 -7t-21.5 -7q-5 0 -22 -6 q-3 0 -5.5 -1t-5.5 -1t-5.5 -1.5t-5.5 -1.5q-22 -8 -45 -15t-45 -15q-46 -14 -92.5 -31.5t-93.5 -39.5l-22 -11q-11 -3 -21 -11q-14 -5 -23.5 -9.5t-23.5 -9.5q-11 -5 -20.5 -12t-23.5 -13q-5 -3 -10.5 -4t-10.5 -7q-5 -3 -11 -5.5t-11 -4.5q-41 -25 -80.5 -49.5 t-78.5 -49.5q-38 -27 -69.5 -51.5t-58.5 -49.5q-30 -25 -53 -48t-43 -45q-19 -22 -31 -38t-20 -30q-5 -8 -8 -12t-6 -10q0 -3 -1.5 -2.5t-1.5 -2.5v-3q8 16 19 27q3 8 11 11q3 5 11 14q11 11 20.5 22t23.5 22q22 22 45 41t48 35q46 38 92.5 68t92.5 58q46 30 88.5 53 t83.5 45q5 3 11 4t11 4q5 5 9.5 6.5t9.5 4.5t9.5 5.5t9.5 5.5q8 3 20 8q22 11 39.5 19.5t33.5 16.5q142 66 221 98q22 8 36 14t25 11zM2701 1857q3 14 1.5 31.5t-7.5 33.5q-3 8 -5.5 18t-7.5 18t-11 15t-11 15q-30 30 -58 44q-16 5 -32.5 10.5t-32.5 10.5q-30 5 -57.5 7 t-49.5 2q-11 0 -17.5 -1.5t-12.5 -1.5h-8h-3q14 -3 23.5 -3t20.5 -3q14 -3 23.5 -4t20.5 -4q22 -5 39.5 -9t36.5 -10q35 -14 60 -30q14 -8 25 -17.5t19 -17.5q5 -5 8 -11t6 -11q5 -5 6.5 -9.5t4.5 -9.5q8 -16 13 -33q3 -11 3 -25q3 -2 3 -5z" />
<glyph unicode="&#xc9;" horiz-adv-x="1990" d="M1999 2228q-8 11 -16.5 19t-13.5 16q-11 -3 -41 -2l-49 2h-23t-37 3t-37 7t-26 12q-14 14 -22 27.5t-14 35.5q0 25 38.5 34.5t57.5 11.5q25 3 71 8.5t93 19.5q5 0 13 3t30 2q33 0 47 -33q3 -8 11 -16q3 -3 3 -5q22 -41 46.5 -79.5t40.5 -57.5q5 -8 15 -21.5t16.5 -28.5 t8 -30t-6.5 -24q-41 -22 -69 -13q-14 0 -28.5 9.5t-29.5 23t-26 24.5t-14 16zM2103 2160q-30 33 -53.5 64t-36.5 59q-16 30 -30 57q-8 -22 9.5 -52t41.5 -60q31 -33 69 -68zM2753 1887q0 -25 -3 -49q-3 -22 -10 -44t-23 -44q-19 -22 -43.5 -24.5t-52.5 30.5q-14 16 -56 46 t-136 48t-247 12.5t-382 -62.5q-71 -101 -147.5 -231t-149 -262.5t-134 -252.5t-102.5 -202q96 35 192.5 57t200.5 30q33 3 82 4.5t99.5 -2.5t93 -20.5t61.5 -52.5q16 -30 8 -62.5t-27 -62.5q-22 -30 -64 -38.5t-78 -5.5q-180 16 -342.5 1t-337.5 -80q-101 -213 -168 -377 t-108 -287t-60 -210t-22 -145q-11 -137 47 -172q123 -46 263.5 -27t284 75t280 135t247 151.5t185.5 126t100 58.5t35.5 -5.5t12 -28.5t-2.5 -42.5t-10 -43.5q-5 -16 -16 -33q-8 -14 -22 -33t-36 -38q-90 -82 -218 -177.5t-292 -168t-360.5 -101t-426.5 20.5 q-123 27 -180 116t-64 223t30 303t104 355t154 379.5t183 376.5t188.5 347t171.5 292q-265 -98 -441 -192t-283.5 -183t-158 -169.5t-64.5 -153t-1.5 -134t31.5 -109t32.5 -80.5t2.5 -49q-22 -30 -61.5 -23.5t-66.5 31.5q-22 16 -34 36.5t-23 40.5q-11 22 -19 46 q-41 139 -18 262t91.5 228t170.5 195t221 164t246 131.5t242 100.5q8 5 16 6.5t16 7.5q55 22 122 46.5t146 49.5l16 24q27 35 63 63q30 22 75 41t103 19q22 0 41 -6q16 -5 29.5 -14.5t19.5 -25.5q142 35 280 53t247 5.5t179 -63t78 -151.5zM1281 -683q-5 -3 -14 -2 q-3 0 -5 -3q74 8 158 30q87 27 161 57q79 35 154 76.5t138 84.5q63 46 113.5 86t88.5 73q19 14 33 27.5t22 21.5l8 8t8 6l3 5q-22 -16 -44 -32.5t-43 -33.5q-22 -14 -44 -28.5t-44 -28.5q-44 -30 -84.5 -56t-79.5 -48q-79 -46 -148.5 -83t-132.5 -67q-14 -5 -29 -12t-28 -12 q-8 -3 -15 -6t-12 -5q-5 -3 -7 -3t-7 -3q-3 -3 -5.5 -3t-5.5 -2q-14 -5 -25 -8t-21 -9q-11 -5 -21 -6.5t-18 -6.5q-11 -3 -17.5 -4.5t-14.5 -3.5q-17 -6 -22 -9zM1458 1543q5 11 9.5 20.5t9.5 14.5q3 8 6 11q-30 -46 -60 -94t-60 -94t-56 -94t-54 -95q-55 -93 -101 -180 t-90 -175q-172 -339 -259 -611q-25 -68 -41 -126q-8 -30 -16.5 -57.5t-13.5 -54.5t-9.5 -53t-9.5 -48t-6.5 -42.5t-4.5 -39.5q-5 -38 -4 -66.5t1 -50.5q0 -11 3 -17v-10q0 -5 1.5 -5.5t1.5 -3.5v-2q-3 19 -1.5 38t3.5 41q0 14 3 19v11q0 3 1.5 4t1.5 4q0 5 1 10.5t1 11.5 q0 5 1.5 9.5t1.5 9.5l3 11l3 8q0 5 1 10.5t1 11.5q3 5 3 9.5t3 9.5q0 5 5 22q5 27 11 41q0 8 6 19q0 8 5 19q14 41 26 82t26 85q14 41 30 82t33 81q33 79 67 160t69 160q5 14 12 29t16 28q16 41 35 80q19 41 38 81.5t39 81.5q68 139 128 259.5t106 207.5q25 44 42.5 78 t31.5 59zM1475 1819q5 3 9 4t7 4t5 3q-11 -5 -21.5 -7t-21.5 -7q-5 0 -22 -6q-3 0 -5.5 -1t-5.5 -1t-5.5 -1.5t-5.5 -1.5q-22 -8 -45 -15t-45 -15q-46 -14 -92.5 -31.5t-93.5 -39.5l-22 -11q-11 -3 -21 -11q-14 -5 -23.5 -9.5t-23.5 -9.5q-11 -5 -20.5 -12t-23.5 -13 q-5 -3 -10.5 -4t-10.5 -7q-5 -3 -11 -5.5t-11 -4.5q-41 -25 -80.5 -49.5t-78.5 -49.5q-38 -27 -69.5 -51.5t-58.5 -49.5q-30 -25 -53 -48t-43 -45q-19 -22 -31 -38t-20 -30q-5 -8 -8 -12t-6 -10q0 -3 -1.5 -2.5t-1.5 -2.5v-3q8 16 19 27q3 8 11 11q3 5 11 14q11 11 20.5 22 t23.5 22q22 22 45 41t48 35q46 38 92.5 68t92.5 58q46 30 88.5 53t83.5 45q5 3 11 4t11 4q5 5 9.5 6.5t9.5 4.5t9.5 5.5t9.5 5.5q8 3 20 8q22 11 39.5 19.5t33.5 16.5q142 66 221 98q22 8 36 14t25 11zM2701 1857q3 14 1.5 31.5t-7.5 33.5q-3 8 -5.5 18t-7.5 18t-11 15 t-11 15q-30 30 -58 44q-16 5 -32.5 10.5t-32.5 10.5q-30 5 -57.5 7t-49.5 2q-11 0 -17.5 -1.5t-12.5 -1.5h-8h-3q14 -3 23.5 -3t20.5 -3q14 -3 23.5 -4t20.5 -4q22 -5 39.5 -9t36.5 -10q35 -14 60 -30q14 -8 25 -17.5t19 -17.5q5 -5 8 -11t6 -11q5 -5 6.5 -9.5t4.5 -9.5 q8 -16 13 -33q3 -11 3 -25q3 -2 3 -5z" />
<glyph unicode="&#xca;" horiz-adv-x="1990" d="M1824 2427q27 38 71 19q22 -11 30 -16t14 -8q38 -35 83 -62.5t69 -41.5q8 -5 24.5 -14.5t30.5 -22t22 -26t3 -27.5q-30 -38 -66 -46q-11 -5 -31.5 -1.5t-41 9t-38 12.5t-23.5 10q-22 8 -31.5 12t-22.5 9q-44 19 -70 45t-35.5 53.5t-5.5 53.5t18 42zM2056 2212 q-46 19 -84.5 42t-65.5 42q-30 22 -58 44q3 -27 36 -50.5t71 -39.5q46 -22 101 -38zM2753 1887q0 -25 -3 -49q-3 -22 -10 -44t-23 -44q-19 -22 -43.5 -24.5t-52.5 30.5q-14 16 -56 46t-136 48t-247 12.5t-382 -62.5q-71 -101 -147.5 -231t-149 -262.5t-134 -252.5 t-102.5 -202q96 35 192.5 57t200.5 30q33 3 82 4.5t99.5 -2.5t93 -20.5t61.5 -52.5q16 -30 8 -62.5t-27 -62.5q-22 -30 -64 -38.5t-78 -5.5q-180 16 -342.5 1t-337.5 -80q-101 -213 -168 -377t-108 -287t-60 -210t-22 -145q-11 -137 47 -172q123 -46 263.5 -27t284 75 t280 135t247 151.5t185.5 126t100 58.5t35.5 -5.5t12 -28.5t-2.5 -42.5t-10 -43.5q-5 -16 -16 -33q-8 -14 -22 -33t-36 -38q-90 -82 -218 -177.5t-292 -168t-360.5 -101t-426.5 20.5q-123 27 -180 116t-64 223t30 303t104 355t154 379.5t183 376.5t188.5 347t171.5 292 q-265 -98 -441 -192t-283.5 -183t-158 -169.5t-64.5 -153t-1.5 -134t31.5 -109t32.5 -80.5t2.5 -49q-22 -30 -61.5 -23.5t-66.5 31.5q-22 16 -34 36.5t-23 40.5q-11 22 -19 46q-41 139 -18 262t91.5 228t170.5 195t221 164t246 131.5t242 100.5q8 5 16 6.5t16 7.5 q55 22 122 46.5t146 49.5l16 24q27 35 63 63q30 22 75 41t103 19q22 0 41 -6q16 -5 29.5 -14.5t19.5 -25.5q142 35 280 53t247 5.5t179 -63t78 -151.5zM1281 -683q-5 -3 -14 -2q-3 0 -5 -3q74 8 158 30q87 27 161 57q79 35 154 76.5t138 84.5q63 46 113.5 86t88.5 73 q19 14 33 27.5t22 21.5l8 8t8 6l3 5q-22 -16 -44 -32.5t-43 -33.5q-22 -14 -44 -28.5t-44 -28.5q-44 -30 -84.5 -56t-79.5 -48q-79 -46 -148.5 -83t-132.5 -67q-14 -5 -29 -12t-28 -12q-8 -3 -15 -6t-12 -5q-5 -3 -7 -3t-7 -3q-3 -3 -5.5 -3t-5.5 -2q-14 -5 -25 -8t-21 -9 q-11 -5 -21 -6.5t-18 -6.5q-11 -3 -17.5 -4.5t-14.5 -3.5q-17 -6 -22 -9zM1458 1543q5 11 9.5 20.5t9.5 14.5q3 8 6 11q-30 -46 -60 -94t-60 -94t-56 -94t-54 -95q-55 -93 -101 -180t-90 -175q-172 -339 -259 -611q-25 -68 -41 -126q-8 -30 -16.5 -57.5t-13.5 -54.5 t-9.5 -53t-9.5 -48t-6.5 -42.5t-4.5 -39.5q-5 -38 -4 -66.5t1 -50.5q0 -11 3 -17v-10q0 -5 1.5 -5.5t1.5 -3.5v-2q-3 19 -1.5 38t3.5 41q0 14 3 19v11q0 3 1.5 4t1.5 4q0 5 1 10.5t1 11.5q0 5 1.5 9.5t1.5 9.5l3 11l3 8q0 5 1 10.5t1 11.5q3 5 3 9.5t3 9.5q0 5 5 22 q5 27 11 41q0 8 6 19q0 8 5 19q14 41 26 82t26 85q14 41 30 82t33 81q33 79 67 160t69 160q5 14 12 29t16 28q16 41 35 80q19 41 38 81.5t39 81.5q68 139 128 259.5t106 207.5q25 44 42.5 78t31.5 59zM1475 1819q5 3 9 4t7 4t5 3q-11 -5 -21.5 -7t-21.5 -7q-5 0 -22 -6 q-3 0 -5.5 -1t-5.5 -1t-5.5 -1.5t-5.5 -1.5q-22 -8 -45 -15t-45 -15q-46 -14 -92.5 -31.5t-93.5 -39.5l-22 -11q-11 -3 -21 -11q-14 -5 -23.5 -9.5t-23.5 -9.5q-11 -5 -20.5 -12t-23.5 -13q-5 -3 -10.5 -4t-10.5 -7q-5 -3 -11 -5.5t-11 -4.5q-41 -25 -80.5 -49.5 t-78.5 -49.5q-38 -27 -69.5 -51.5t-58.5 -49.5q-30 -25 -53 -48t-43 -45q-19 -22 -31 -38t-20 -30q-5 -8 -8 -12t-6 -10q0 -3 -1.5 -2.5t-1.5 -2.5v-3q8 16 19 27q3 8 11 11q3 5 11 14q11 11 20.5 22t23.5 22q22 22 45 41t48 35q46 38 92.5 68t92.5 58q46 30 88.5 53 t83.5 45q5 3 11 4t11 4q5 5 9.5 6.5t9.5 4.5t9.5 5.5t9.5 5.5q8 3 20 8q22 11 39.5 19.5t33.5 16.5q142 66 221 98q22 8 36 14t25 11zM2701 1857q3 14 1.5 31.5t-7.5 33.5q-3 8 -5.5 18t-7.5 18t-11 15t-11 15q-30 30 -58 44q-16 5 -32.5 10.5t-32.5 10.5q-30 5 -57.5 7 t-49.5 2q-11 0 -17.5 -1.5t-12.5 -1.5h-8h-3q14 -3 23.5 -3t20.5 -3q14 -3 23.5 -4t20.5 -4q22 -5 39.5 -9t36.5 -10q35 -14 60 -30q14 -8 25 -17.5t19 -17.5q5 -5 8 -11t6 -11q5 -5 6.5 -9.5t4.5 -9.5q8 -16 13 -33q3 -11 3 -25q3 -2 3 -5z" />
<glyph unicode="&#xcb;" horiz-adv-x="1990" d="M2020 2479q22 -8 27.5 -23t2.5 -29q-3 -5 -5.5 -10.5t-5.5 -11.5q-5 -5 -8 -10q-30 -30 -49 -65.5t-27 -55.5q-8 -14 -28.5 -41t-48.5 -19q-22 11 -34 20.5t-20 23.5q-5 8 -5.5 24.5t3.5 31.5t8.5 27.5t4.5 17.5q5 16 8 24.5t5 16.5q27 68 82 83t90 -4zM1846 2296 q25 71 60 115q16 25 38 44q-27 -5 -45 -28.5t-32 -53.5q-13 -33 -21 -77zM2195 2392q22 -8 27.5 -23t2.5 -29q-3 -5 -5.5 -10.5t-5.5 -11.5q-5 -5 -8 -11q-30 -30 -49 -65.5t-27 -54.5q-8 -14 -29 -41t-48 -19q-22 11 -34 20.5t-21 23.5q-5 8 -5 24.5t4 31.5t8 27t4 18 q5 16 8 24t6 17q27 68 82 83t90 -4zM2020 2209q25 71 60 115q16 25 39 43q-27 -5 -45 -28.5t-32 -53.5q-14 -32 -22 -76zM2753 1887q0 -25 -3 -49q-3 -22 -10 -44t-23 -44q-19 -22 -43.5 -24.5t-52.5 30.5q-14 16 -56 46t-136 48t-247 12.5t-382 -62.5q-71 -101 -147.5 -231 t-149 -262.5t-134 -252.5t-102.5 -202q96 35 192.5 57t200.5 30q33 3 82 4.5t99.5 -2.5t93 -20.5t61.5 -52.5q16 -30 8 -62.5t-27 -62.5q-22 -30 -64 -38.5t-78 -5.5q-180 16 -342.5 1t-337.5 -80q-101 -213 -168 -377t-108 -287t-60 -210t-22 -145q-11 -137 47 -172 q123 -46 263.5 -27t284 75t280 135t247 151.5t185.5 126t100 58.5t35.5 -5.5t12 -28.5t-2.5 -42.5t-10 -43.5q-5 -16 -16 -33q-8 -14 -22 -33t-36 -38q-90 -82 -218 -177.5t-292 -168t-360.5 -101t-426.5 20.5q-123 27 -180 116t-64 223t30 303t104 355t154 379.5t183 376.5 t188.5 347t171.5 292q-265 -98 -441 -192t-283.5 -183t-158 -169.5t-64.5 -153t-1.5 -134t31.5 -109t32.5 -80.5t2.5 -49q-22 -30 -61.5 -23.5t-66.5 31.5q-22 16 -34 36.5t-23 40.5q-11 22 -19 46q-41 139 -18 262t91.5 228t170.5 195t221 164t246 131.5t242 100.5 q8 5 16 6.5t16 7.5q55 22 122 46.5t146 49.5l16 24q27 35 63 63q30 22 75 41t103 19q22 0 41 -6q16 -5 29.5 -14.5t19.5 -25.5q142 35 280 53t247 5.5t179 -63t78 -151.5zM1281 -683q-5 -3 -14 -2q-3 0 -5 -3q74 8 158 30q87 27 161 57q79 35 154 76.5t138 84.5 q63 46 113.5 86t88.5 73q19 14 33 27.5t22 21.5l8 8t8 6l3 5q-22 -16 -44 -32.5t-43 -33.5q-22 -14 -44 -28.5t-44 -28.5q-44 -30 -84.5 -56t-79.5 -48q-79 -46 -148.5 -83t-132.5 -67q-14 -5 -29 -12t-28 -12q-8 -3 -15 -6t-12 -5q-5 -3 -7 -3t-7 -3q-3 -3 -5.5 -3t-5.5 -2 q-14 -5 -25 -8t-21 -9q-11 -5 -21 -6.5t-18 -6.5q-11 -3 -17.5 -4.5t-14.5 -3.5q-17 -6 -22 -9zM1458 1543q5 11 9.5 20.5t9.5 14.5q3 8 6 11q-30 -46 -60 -94t-60 -94t-56 -94t-54 -95q-55 -93 -101 -180t-90 -175q-172 -339 -259 -611q-25 -68 -41 -126 q-8 -30 -16.5 -57.5t-13.5 -54.5t-9.5 -53t-9.5 -48t-6.5 -42.5t-4.5 -39.5q-5 -38 -4 -66.5t1 -50.5q0 -11 3 -17v-10q0 -5 1.5 -5.5t1.5 -3.5v-2q-3 19 -1.5 38t3.5 41q0 14 3 19v11q0 3 1.5 4t1.5 4q0 5 1 10.5t1 11.5q0 5 1.5 9.5t1.5 9.5l3 11l3 8q0 5 1 10.5t1 11.5 q3 5 3 9.5t3 9.5q0 5 5 22q5 27 11 41q0 8 6 19q0 8 5 19q14 41 26 82t26 85q14 41 30 82t33 81q33 79 67 160t69 160q5 14 12 29t16 28q16 41 35 80q19 41 38 81.5t39 81.5q68 139 128 259.5t106 207.5q25 44 42.5 78t31.5 59zM1475 1819q5 3 9 4t7 4t5 3q-11 -5 -21.5 -7 t-21.5 -7q-5 0 -22 -6q-3 0 -5.5 -1t-5.5 -1t-5.5 -1.5t-5.5 -1.5q-22 -8 -45 -15t-45 -15q-46 -14 -92.5 -31.5t-93.5 -39.5l-22 -11q-11 -3 -21 -11q-14 -5 -23.5 -9.5t-23.5 -9.5q-11 -5 -20.5 -12t-23.5 -13q-5 -3 -10.5 -4t-10.5 -7q-5 -3 -11 -5.5t-11 -4.5 q-41 -25 -80.5 -49.5t-78.5 -49.5q-38 -27 -69.5 -51.5t-58.5 -49.5q-30 -25 -53 -48t-43 -45q-19 -22 -31 -38t-20 -30q-5 -8 -8 -12t-6 -10q0 -3 -1.5 -2.5t-1.5 -2.5v-3q8 16 19 27q3 8 11 11q3 5 11 14q11 11 20.5 22t23.5 22q22 22 45 41t48 35q46 38 92.5 68t92.5 58 q46 30 88.5 53t83.5 45q5 3 11 4t11 4q5 5 9.5 6.5t9.5 4.5t9.5 5.5t9.5 5.5q8 3 20 8q22 11 39.5 19.5t33.5 16.5q142 66 221 98q22 8 36 14t25 11zM2701 1857q3 14 1.5 31.5t-7.5 33.5q-3 8 -5.5 18t-7.5 18t-11 15t-11 15q-30 30 -58 44q-16 5 -32.5 10.5t-32.5 10.5 q-30 5 -57.5 7t-49.5 2q-11 0 -17.5 -1.5t-12.5 -1.5h-8h-3q14 -3 23.5 -3t20.5 -3q14 -3 23.5 -4t20.5 -4q22 -5 39.5 -9t36.5 -10q35 -14 60 -30q14 -8 25 -17.5t19 -17.5q5 -5 8 -11t6 -11q5 -5 6.5 -9.5t4.5 -9.5q8 -16 13 -33q3 -11 3 -25q3 -2 3 -5z" />
<glyph unicode="&#xcc;" horiz-adv-x="1086" d="M1510 2444q27 38 71 19q22 -11 30 -16t14 -8q38 -35 83 -62.5t69 -41.5q8 -5 24.5 -14.5t30.5 -22t22 -26t3 -27.5q-30 -38 -66 -46q-11 -5 -31.5 -1.5t-41 9t-38 12.5t-23.5 10q-22 8 -31.5 12t-22.5 9q-44 19 -70 45t-35.5 53.5t-5.5 53.5t18 42zM1742 2229 q-46 19 -84.5 42t-65.5 42q-30 22 -58 44q3 -27 36 -50.5t71 -39.5q46 -22 101 -38zM2176 1982q87 -44 134 -106.5t27 -157.5q-5 -22 -16 -44q-8 -19 -21.5 -41t-35.5 -36t-52 -12t-36 45q-14 71 -68.5 120.5t-136 80.5t-181.5 47.5t-201 22.5q-5 -5 -9 -11t-10 -11 q-8 -8 -57 -68.5t-128.5 -201t-190 -380.5t-241.5 -609q-90 -251 -139 -433t-68.5 -310t-14 -208.5t27.5 -129.5q63 -5 127 -15t133 -24q172 -30 244 -79t45 -106q-11 -22 -42.5 -27.5t-66.5 -0.5q-41 5 -90 19q-120 27 -226.5 35.5t-209 1.5t-201 -30t-202.5 -56 q-35 -14 -77.5 -16.5t-72.5 24.5q-22 22 -39.5 53.5t-6.5 64.5q11 38 49 62.5t86 41t97 26t79 15.5q82 14 158 16q-38 120 -31 280t46.5 340t103.5 371t138 377q150 374 278.5 625.5t191.5 365.5q-79 -5 -123 -8q-27 -3 -49 -5q-169 -25 -271.5 -73t-158.5 -108t-76.5 -124 t-26 -120t-8.5 -95.5t-22 -50.5q-33 -16 -65.5 7t-46.5 56q-11 25 -13.5 50.5t-2.5 47.5q0 25 5 49q11 112 63 199.5t132.5 153t180 108t206.5 66.5q205 38 415 49q90 3 187 1.5t196.5 -15t196.5 -39.5t187 -70zM1374 1720q3 3 2.5 6t2.5 5q0 3 3 3l-33 -49l-16 -25l-17 -24 q-8 -14 -16 -25t-14 -24q-8 -14 -16 -25t-14 -25q-8 -14 -15 -24.5t-15 -24.5q-5 -5 -6.5 -12t-7.5 -12q-5 -5 -6.5 -12t-6.5 -13q-5 -14 -13.5 -24.5t-14.5 -24.5q-5 -14 -13 -25t-14 -24q-52 -96 -97 -190t-86 -184q-8 -25 -19 -47q-5 -11 -9.5 -22t-9.5 -21 q-8 -22 -17.5 -44t-18.5 -44q-8 -22 -16 -42.5t-16 -41.5q-11 -27 -14 -41q-5 -14 -8 -23.5t-8 -20.5q-3 -11 -6 -19t-8 -19q-3 -11 -5.5 -20.5t-5.5 -20.5q-5 -11 -6.5 -20.5t-7.5 -18.5q-3 -11 -5.5 -20.5t-4.5 -20.5q-3 -8 -4.5 -17.5t-6.5 -17.5q0 -8 -6 -19 q0 -5 -1.5 -9.5t-1.5 -9.5q-5 -19 -9 -37t-10 -34q-16 -71 -28.5 -135.5t-17.5 -118.5q-8 -57 -11 -105t-6 -86v-71q0 -35 3 -49q0 -11 1.5 -18t1.5 -13v-10v41t3 40q0 5 1 11t1 11v9v10q3 11 3 20.5t3 23.5q0 5 1.5 9.5t1.5 9.5t1 11t1 11t1.5 10.5t1.5 11.5q0 5 1.5 10.5 t1.5 11.5q3 11 4 20.5t4 22.5l8 41q0 5 1.5 11t1.5 11q3 5 3 11t2 11q3 14 4.5 23.5t4.5 20.5q5 27 10 43q0 11 6 22q0 11 5 22q5 27 11 44q5 27 11 44l6 21l5 22l14 44l13 44l6 21l8 22q3 19 14 44q5 11 6.5 20.5t6.5 23.5q3 5 4.5 9t4.5 10q5 16 5 22q5 11 8 20.5t8 22.5 l17 41q5 11 5 22q3 5 4.5 9.5t4.5 9.5l32 82q8 22 16.5 41t16.5 38l16 41q5 11 8 19.5t9 19.5q5 11 8 19t8 19q0 8 6 19q3 5 4 9.5t4 9.5q66 150 126 274.5t106 214.5q22 46 41 81.5t33 57.5q8 14 12.5 23.5t9.5 14.5zM2144 1928q3 -3 5 -3h3q-22 11 -36 17l-16 8 q-16 5 -19 5q-11 5 -19.5 8t-18.5 6l-17 8q-5 3 -9 3t-10 2q-74 25 -147 41q-22 5 -36 9q-8 0 -16 1t-19 4q-8 3 -18 3t-18 3q-5 3 -16 2q-5 3 -19 3q-35 5 -69.5 8t-67.5 6q-66 5 -128.5 3.5t-122.5 -6.5q-5 0 -13.5 -1.5t-13.5 -1.5q-8 0 -15 -1.5t-16 -1.5q-14 -3 -27 -4 t-27 -4q-25 -5 -51 -8t-47 -8q-5 -3 -12.5 -3t-12.5 -3q-8 0 -11 -2q-8 0 -11 -3q-27 -5 -44 -11q-30 -5 -40 -11q-11 -3 -21 -5.5t-18 -5.5q-5 -3 -9 -3t-10 -2q-5 -3 -8 -3t-8 -3q-11 -5 -33 -11q-5 -3 -13.5 -5.5t-13.5 -5.5q-8 -3 -15 -5.5t-13 -4.5q-16 -5 -21 -9 q-5 -3 -11 -4t-11 -4q-22 -11 -30 -14q-5 -5 -11 -6.5t-8 -3.5l-6 -3q98 35 219 65q60 14 118.5 25t121.5 19q60 11 120 15t120 7t116 1.5t111 -7.5q109 -5 200.5 -21.5t159.5 -32.5q33 -11 59 -18t42 -12q11 -5 17 -6.5t11 -4.5z" />
<glyph unicode="&#xcd;" horiz-adv-x="1086" d="M1663 2256q-8 11 -16.5 19t-13.5 16q-11 -3 -41 -2l-49 2h-23t-37 3t-37 7t-26 12q-14 14 -22 27.5t-14 35.5q0 25 38.5 34.5t57.5 11.5q25 3 71 8.5t93 19.5q5 0 13 3t30 2q33 0 47 -33q3 -8 11 -16q3 -3 3 -5q22 -41 46.5 -79.5t40.5 -57.5q5 -8 15 -21.5t16.5 -28.5 t8 -30t-6.5 -24q-41 -22 -69 -13q-14 0 -28.5 9.5t-29.5 23t-26 24.5t-14 16zM1767 2188q-30 33 -53.5 64t-36.5 59q-16 30 -30 57q-8 -22 9.5 -52t41.5 -60q31 -33 69 -68zM2176 1982q87 -44 134 -106.5t27 -157.5q-5 -22 -16 -44q-8 -19 -21.5 -41t-35.5 -36t-52 -12 t-36 45q-14 71 -68.5 120.5t-136 80.5t-181.5 47.5t-201 22.5q-5 -5 -9 -11t-10 -11q-8 -8 -57 -68.5t-128.5 -201t-190 -380.5t-241.5 -609q-90 -251 -139 -433t-68.5 -310t-14 -208.5t27.5 -129.5q63 -5 127 -15t133 -24q172 -30 244 -79t45 -106q-11 -22 -42.5 -27.5 t-66.5 -0.5q-41 5 -90 19q-120 27 -226.5 35.5t-209 1.5t-201 -30t-202.5 -56q-35 -14 -77.5 -16.5t-72.5 24.5q-22 22 -39.5 53.5t-6.5 64.5q11 38 49 62.5t86 41t97 26t79 15.5q82 14 158 16q-38 120 -31 280t46.5 340t103.5 371t138 377q150 374 278.5 625.5t191.5 365.5 q-79 -5 -123 -8q-27 -3 -49 -5q-169 -25 -271.5 -73t-158.5 -108t-76.5 -124t-26 -120t-8.5 -95.5t-22 -50.5q-33 -16 -65.5 7t-46.5 56q-11 25 -13.5 50.5t-2.5 47.5q0 25 5 49q11 112 63 199.5t132.5 153t180 108t206.5 66.5q205 38 415 49q90 3 187 1.5t196.5 -15 t196.5 -39.5t187 -70zM1374 1720q3 3 2.5 6t2.5 5q0 3 3 3l-33 -49l-16 -25l-17 -24q-8 -14 -16 -25t-14 -24q-8 -14 -16 -25t-14 -25q-8 -14 -15 -24.5t-15 -24.5q-5 -5 -6.5 -12t-7.5 -12q-5 -5 -6.5 -12t-6.5 -13q-5 -14 -13.5 -24.5t-14.5 -24.5q-5 -14 -13 -25t-14 -24 q-52 -96 -97 -190t-86 -184q-8 -25 -19 -47q-5 -11 -9.5 -22t-9.5 -21q-8 -22 -17.5 -44t-18.5 -44q-8 -22 -16 -42.5t-16 -41.5q-11 -27 -14 -41q-5 -14 -8 -23.5t-8 -20.5q-3 -11 -6 -19t-8 -19q-3 -11 -5.5 -20.5t-5.5 -20.5q-5 -11 -6.5 -20.5t-7.5 -18.5 q-3 -11 -5.5 -20.5t-4.5 -20.5q-3 -8 -4.5 -17.5t-6.5 -17.5q0 -8 -6 -19q0 -5 -1.5 -9.5t-1.5 -9.5q-5 -19 -9 -37t-10 -34q-16 -71 -28.5 -135.5t-17.5 -118.5q-8 -57 -11 -105t-6 -86v-71q0 -35 3 -49q0 -11 1.5 -18t1.5 -13v-10v41t3 40q0 5 1 11t1 11v9v10q3 11 3 20.5 t3 23.5q0 5 1.5 9.5t1.5 9.5t1 11t1 11t1.5 10.5t1.5 11.5q0 5 1.5 10.5t1.5 11.5q3 11 4 20.5t4 22.5l8 41q0 5 1.5 11t1.5 11q3 5 3 11t2 11q3 14 4.5 23.5t4.5 20.5q5 27 10 43q0 11 6 22q0 11 5 22q5 27 11 44q5 27 11 44l6 21l5 22l14 44l13 44l6 21l8 22q3 19 14 44 q5 11 6.5 20.5t6.5 23.5q3 5 4.5 9t4.5 10q5 16 5 22q5 11 8 20.5t8 22.5l17 41q5 11 5 22q3 5 4.5 9.5t4.5 9.5l32 82q8 22 16.5 41t16.5 38l16 41q5 11 8 19.5t9 19.5q5 11 8 19t8 19q0 8 6 19q3 5 4 9.5t4 9.5q66 150 126 274.5t106 214.5q22 46 41 81.5t33 57.5 q8 14 12.5 23.5t9.5 14.5zM2144 1928q3 -3 5 -3h3q-22 11 -36 17l-16 8q-16 5 -19 5q-11 5 -19.5 8t-18.5 6l-17 8q-5 3 -9 3t-10 2q-74 25 -147 41q-22 5 -36 9q-8 0 -16 1t-19 4q-8 3 -18 3t-18 3q-5 3 -16 2q-5 3 -19 3q-35 5 -69.5 8t-67.5 6q-66 5 -128.5 3.5 t-122.5 -6.5q-5 0 -13.5 -1.5t-13.5 -1.5q-8 0 -15 -1.5t-16 -1.5q-14 -3 -27 -4t-27 -4q-25 -5 -51 -8t-47 -8q-5 -3 -12.5 -3t-12.5 -3q-8 0 -11 -2q-8 0 -11 -3q-27 -5 -44 -11q-30 -5 -40 -11q-11 -3 -21 -5.5t-18 -5.5q-5 -3 -9 -3t-10 -2q-5 -3 -8 -3t-8 -3 q-11 -5 -33 -11q-5 -3 -13.5 -5.5t-13.5 -5.5q-8 -3 -15 -5.5t-13 -4.5q-16 -5 -21 -9q-5 -3 -11 -4t-11 -4q-22 -11 -30 -14q-5 -5 -11 -6.5t-8 -3.5l-6 -3q98 35 219 65q60 14 118.5 25t121.5 19q60 11 120 15t120 7t116 1.5t111 -7.5q109 -5 200.5 -21.5t159.5 -32.5 q33 -11 59 -18t42 -12q11 -5 17 -6.5t11 -4.5z" />
<glyph unicode="&#xce;" horiz-adv-x="1086" d="M1486 2422q27 38 71 19q22 -11 30 -16t14 -8q38 -35 83 -62.5t69 -41.5q8 -5 24.5 -14.5t30.5 -22t22 -26t3 -27.5q-30 -38 -66 -46q-11 -5 -31.5 -1.5t-41 9t-38 12.5t-23.5 10q-22 8 -31.5 12t-22.5 9q-44 19 -70 45t-35.5 53.5t-5.5 53.5t18 42zM1718 2207 q-46 19 -84.5 42t-65.5 42q-30 22 -58 44q3 -27 36 -50.5t71 -39.5q46 -22 101 -38zM2176 1982q87 -44 134 -106.5t27 -157.5q-5 -22 -16 -44q-8 -19 -21.5 -41t-35.5 -36t-52 -12t-36 45q-14 71 -68.5 120.5t-136 80.5t-181.5 47.5t-201 22.5q-5 -5 -9 -11t-10 -11 q-8 -8 -57 -68.5t-128.5 -201t-190 -380.5t-241.5 -609q-90 -251 -139 -433t-68.5 -310t-14 -208.5t27.5 -129.5q63 -5 127 -15t133 -24q172 -30 244 -79t45 -106q-11 -22 -42.5 -27.5t-66.5 -0.5q-41 5 -90 19q-120 27 -226.5 35.5t-209 1.5t-201 -30t-202.5 -56 q-35 -14 -77.5 -16.5t-72.5 24.5q-22 22 -39.5 53.5t-6.5 64.5q11 38 49 62.5t86 41t97 26t79 15.5q82 14 158 16q-38 120 -31 280t46.5 340t103.5 371t138 377q150 374 278.5 625.5t191.5 365.5q-79 -5 -123 -8q-27 -3 -49 -5q-169 -25 -271.5 -73t-158.5 -108t-76.5 -124 t-26 -120t-8.5 -95.5t-22 -50.5q-33 -16 -65.5 7t-46.5 56q-11 25 -13.5 50.5t-2.5 47.5q0 25 5 49q11 112 63 199.5t132.5 153t180 108t206.5 66.5q205 38 415 49q90 3 187 1.5t196.5 -15t196.5 -39.5t187 -70zM1374 1720q3 3 2.5 6t2.5 5q0 3 3 3l-33 -49l-16 -25l-17 -24 q-8 -14 -16 -25t-14 -24q-8 -14 -16 -25t-14 -25q-8 -14 -15 -24.5t-15 -24.5q-5 -5 -6.5 -12t-7.5 -12q-5 -5 -6.5 -12t-6.5 -13q-5 -14 -13.5 -24.5t-14.5 -24.5q-5 -14 -13 -25t-14 -24q-52 -96 -97 -190t-86 -184q-8 -25 -19 -47q-5 -11 -9.5 -22t-9.5 -21 q-8 -22 -17.5 -44t-18.5 -44q-8 -22 -16 -42.5t-16 -41.5q-11 -27 -14 -41q-5 -14 -8 -23.5t-8 -20.5q-3 -11 -6 -19t-8 -19q-3 -11 -5.5 -20.5t-5.5 -20.5q-5 -11 -6.5 -20.5t-7.5 -18.5q-3 -11 -5.5 -20.5t-4.5 -20.5q-3 -8 -4.5 -17.5t-6.5 -17.5q0 -8 -6 -19 q0 -5 -1.5 -9.5t-1.5 -9.5q-5 -19 -9 -37t-10 -34q-16 -71 -28.5 -135.5t-17.5 -118.5q-8 -57 -11 -105t-6 -86v-71q0 -35 3 -49q0 -11 1.5 -18t1.5 -13v-10v41t3 40q0 5 1 11t1 11v9v10q3 11 3 20.5t3 23.5q0 5 1.5 9.5t1.5 9.5t1 11t1 11t1.5 10.5t1.5 11.5q0 5 1.5 10.5 t1.5 11.5q3 11 4 20.5t4 22.5l8 41q0 5 1.5 11t1.5 11q3 5 3 11t2 11q3 14 4.5 23.5t4.5 20.5q5 27 10 43q0 11 6 22q0 11 5 22q5 27 11 44q5 27 11 44l6 21l5 22l14 44l13 44l6 21l8 22q3 19 14 44q5 11 6.5 20.5t6.5 23.5q3 5 4.5 9t4.5 10q5 16 5 22q5 11 8 20.5t8 22.5 l17 41q5 11 5 22q3 5 4.5 9.5t4.5 9.5l32 82q8 22 16.5 41t16.5 38l16 41q5 11 8 19.5t9 19.5q5 11 8 19t8 19q0 8 6 19q3 5 4 9.5t4 9.5q66 150 126 274.5t106 214.5q22 46 41 81.5t33 57.5q8 14 12.5 23.5t9.5 14.5zM2144 1928q3 -3 5 -3h3q-22 11 -36 17l-16 8 q-16 5 -19 5q-11 5 -19.5 8t-18.5 6l-17 8q-5 3 -9 3t-10 2q-74 25 -147 41q-22 5 -36 9q-8 0 -16 1t-19 4q-8 3 -18 3t-18 3q-5 3 -16 2q-5 3 -19 3q-35 5 -69.5 8t-67.5 6q-66 5 -128.5 3.5t-122.5 -6.5q-5 0 -13.5 -1.5t-13.5 -1.5q-8 0 -15 -1.5t-16 -1.5q-14 -3 -27 -4 t-27 -4q-25 -5 -51 -8t-47 -8q-5 -3 -12.5 -3t-12.5 -3q-8 0 -11 -2q-8 0 -11 -3q-27 -5 -44 -11q-30 -5 -40 -11q-11 -3 -21 -5.5t-18 -5.5q-5 -3 -9 -3t-10 -2q-5 -3 -8 -3t-8 -3q-11 -5 -33 -11q-5 -3 -13.5 -5.5t-13.5 -5.5q-8 -3 -15 -5.5t-13 -4.5q-16 -5 -21 -9 q-5 -3 -11 -4t-11 -4q-22 -11 -30 -14q-5 -5 -11 -6.5t-8 -3.5l-6 -3q98 35 219 65q60 14 118.5 25t121.5 19q60 11 120 15t120 7t116 1.5t111 -7.5q109 -5 200.5 -21.5t159.5 -32.5q33 -11 59 -18t42 -12q11 -5 17 -6.5t11 -4.5z" />
<glyph unicode="&#xcf;" horiz-adv-x="1086" d="M1687 2515q22 -8 27.5 -23t2.5 -29q-3 -5 -5.5 -10.5t-5.5 -11.5q-5 -5 -8 -10q-30 -30 -49 -65.5t-27 -55.5q-8 -14 -28.5 -41t-48.5 -19q-22 11 -34 20.5t-20 23.5q-5 8 -5.5 24.5t3.5 31.5t8.5 27.5t4.5 17.5q5 16 8 24.5t5 16.5q27 68 82 83t90 -4zM1513 2332 q25 71 60 115q16 25 38 44q-27 -5 -45 -28.5t-32 -53.5q-13 -33 -21 -77zM1862 2428q22 -8 27.5 -23t2.5 -29q-3 -5 -5.5 -10.5t-5.5 -11.5q-5 -5 -8 -11q-30 -30 -49 -65.5t-27 -54.5q-8 -14 -29 -41t-48 -19q-22 11 -34 20.5t-21 23.5q-5 8 -5 24.5t4 31.5t8 27t4 18 q5 16 8 24t6 17q27 68 82 83t90 -4zM1687 2245q25 71 60 115q16 25 39 43q-27 -5 -45 -28.5t-32 -53.5q-14 -32 -22 -76zM2176 1982q87 -44 134 -106.5t27 -157.5q-5 -22 -16 -44q-8 -19 -21.5 -41t-35.5 -36t-52 -12t-36 45q-14 71 -68.5 120.5t-136 80.5t-181.5 47.5 t-201 22.5q-5 -5 -9 -11t-10 -11q-8 -8 -57 -68.5t-128.5 -201t-190 -380.5t-241.5 -609q-90 -251 -139 -433t-68.5 -310t-14 -208.5t27.5 -129.5q63 -5 127 -15t133 -24q172 -30 244 -79t45 -106q-11 -22 -42.5 -27.5t-66.5 -0.5q-41 5 -90 19q-120 27 -226.5 35.5 t-209 1.5t-201 -30t-202.5 -56q-35 -14 -77.5 -16.5t-72.5 24.5q-22 22 -39.5 53.5t-6.5 64.5q11 38 49 62.5t86 41t97 26t79 15.5q82 14 158 16q-38 120 -31 280t46.5 340t103.5 371t138 377q150 374 278.5 625.5t191.5 365.5q-79 -5 -123 -8q-27 -3 -49 -5 q-169 -25 -271.5 -73t-158.5 -108t-76.5 -124t-26 -120t-8.5 -95.5t-22 -50.5q-33 -16 -65.5 7t-46.5 56q-11 25 -13.5 50.5t-2.5 47.5q0 25 5 49q11 112 63 199.5t132.5 153t180 108t206.5 66.5q205 38 415 49q90 3 187 1.5t196.5 -15t196.5 -39.5t187 -70zM1374 1720 q3 3 2.5 6t2.5 5q0 3 3 3l-33 -49l-16 -25l-17 -24q-8 -14 -16 -25t-14 -24q-8 -14 -16 -25t-14 -25q-8 -14 -15 -24.5t-15 -24.5q-5 -5 -6.5 -12t-7.5 -12q-5 -5 -6.5 -12t-6.5 -13q-5 -14 -13.5 -24.5t-14.5 -24.5q-5 -14 -13 -25t-14 -24q-52 -96 -97 -190t-86 -184 q-8 -25 -19 -47q-5 -11 -9.5 -22t-9.5 -21q-8 -22 -17.5 -44t-18.5 -44q-8 -22 -16 -42.5t-16 -41.5q-11 -27 -14 -41q-5 -14 -8 -23.5t-8 -20.5q-3 -11 -6 -19t-8 -19q-3 -11 -5.5 -20.5t-5.5 -20.5q-5 -11 -6.5 -20.5t-7.5 -18.5q-3 -11 -5.5 -20.5t-4.5 -20.5 q-3 -8 -4.5 -17.5t-6.5 -17.5q0 -8 -6 -19q0 -5 -1.5 -9.5t-1.5 -9.5q-5 -19 -9 -37t-10 -34q-16 -71 -28.5 -135.5t-17.5 -118.5q-8 -57 -11 -105t-6 -86v-71q0 -35 3 -49q0 -11 1.5 -18t1.5 -13v-10v41t3 40q0 5 1 11t1 11v9v10q3 11 3 20.5t3 23.5q0 5 1.5 9.5t1.5 9.5 t1 11t1 11t1.5 10.5t1.5 11.5q0 5 1.5 10.5t1.5 11.5q3 11 4 20.5t4 22.5l8 41q0 5 1.5 11t1.5 11q3 5 3 11t2 11q3 14 4.5 23.5t4.5 20.5q5 27 10 43q0 11 6 22q0 11 5 22q5 27 11 44q5 27 11 44l6 21l5 22l14 44l13 44l6 21l8 22q3 19 14 44q5 11 6.5 20.5t6.5 23.5 q3 5 4.5 9t4.5 10q5 16 5 22q5 11 8 20.5t8 22.5l17 41q5 11 5 22q3 5 4.5 9.5t4.5 9.5l32 82q8 22 16.5 41t16.5 38l16 41q5 11 8 19.5t9 19.5q5 11 8 19t8 19q0 8 6 19q3 5 4 9.5t4 9.5q66 150 126 274.5t106 214.5q22 46 41 81.5t33 57.5q8 14 12.5 23.5t9.5 14.5z M2144 1928q3 -3 5 -3h3q-22 11 -36 17l-16 8q-16 5 -19 5q-11 5 -19.5 8t-18.5 6l-17 8q-5 3 -9 3t-10 2q-74 25 -147 41q-22 5 -36 9q-8 0 -16 1t-19 4q-8 3 -18 3t-18 3q-5 3 -16 2q-5 3 -19 3q-35 5 -69.5 8t-67.5 6q-66 5 -128.5 3.5t-122.5 -6.5q-5 0 -13.5 -1.5 t-13.5 -1.5q-8 0 -15 -1.5t-16 -1.5q-14 -3 -27 -4t-27 -4q-25 -5 -51 -8t-47 -8q-5 -3 -12.5 -3t-12.5 -3q-8 0 -11 -2q-8 0 -11 -3q-27 -5 -44 -11q-30 -5 -40 -11q-11 -3 -21 -5.5t-18 -5.5q-5 -3 -9 -3t-10 -2q-5 -3 -8 -3t-8 -3q-11 -5 -33 -11q-5 -3 -13.5 -5.5 t-13.5 -5.5q-8 -3 -15 -5.5t-13 -4.5q-16 -5 -21 -9q-5 -3 -11 -4t-11 -4q-22 -11 -30 -14q-5 -5 -11 -6.5t-8 -3.5l-6 -3q98 35 219 65q60 14 118.5 25t121.5 19q60 11 120 15t120 7t116 1.5t111 -7.5q109 -5 200.5 -21.5t159.5 -32.5q33 -11 59 -18t42 -12q11 -5 17 -6.5 t11 -4.5z" />
<glyph unicode="&#xd1;" horiz-adv-x="2427" d="M2351 2294q-55 55 -101 75.5t-46 39.5q0 22 24.5 33t35.5 11q27 5 54.5 -0.5t32.5 -8.5q46 -19 67 -40.5t35 -32.5q30 -27 58.5 -45t50.5 -30.5t35.5 -26t13.5 -32.5q0 -22 -26 -33t-34 -11h-29t-42.5 9.5t-57.5 30t-71 61.5zM2289 2428q33 -14 60 -31.5t46 -31.5 q22 -16 41 -33q-3 22 -24.5 38.5t-49.5 30.5q-29 13 -73 27zM2452 934q-38 -96 -71 -180q-30 -71 -56 -141t-37 -97q-68 -197 -87 -322.5t-8 -197.5t43.5 -103.5t69.5 -46.5t68.5 -20.5t42.5 -27.5q16 -38 -14 -62.5t-63 -35.5q-22 -5 -42.5 -7t-39.5 1q-22 3 -41 8 q-109 33 -165 113.5t-71 194t7 255.5t68 298q16 55 43.5 131t54.5 147q30 82 69 169q27 68 58.5 154.5t52 161.5t22 129.5t-26.5 62.5q-25 5 -75 -33t-120 -110t-153 -174.5t-173 -221.5t-183 -250t-180 -265q-46 -71 -104 -164q-49 -79 -116 -193.5t-149 -262.5 q-71 -128 -123 -216.5t-87 -143.5q-41 -66 -69 -107q-25 -33 -57 -57q-30 -22 -69.5 -34t-88.5 1q-49 8 -80 28q-25 16 -33 47.5t33 83.5l17 16q5 5 12 13.5t12 13.5q11 14 67 85t145 214.5t203.5 366t242.5 541.5q96 240 154.5 422t87.5 315.5t31.5 224t-12.5 147.5 t-41 88.5t-56 48.5q-55 27 -110.5 14.5t-102.5 -34.5q-55 -30 -103 -71q-85 -74 -172.5 -187t-169.5 -241.5t-151.5 -263.5t-121.5 -251t-80.5 -205t-25.5 -127q0 -49 -19 -74q-11 -14 -20 -21q-19 -14 -36.5 -14t-31.5 5q-16 5 -30 14q-46 30 -65.5 75t-19.5 99.5t15.5 115 t36.5 120.5q19 57 68.5 169t131.5 250t199 285.5t276 278.5q98 85 185.5 131t161 64t134 13.5t104 -18t71 -30t37.5 -24.5q98 -71 134 -198t25 -289.5t-60 -349.5t-118 -378q128 175 256.5 337.5t247.5 285.5t221.5 195t175.5 70q41 -3 70 -15.5t51 -34.5q46 -52 50 -142 t-15 -191t-52 -200.5t-60 -170.5zM849 1797q-11 -5 -19 -13.5t-19 -16.5l-9.5 -9.5l-9.5 -9.5t-9.5 -8t-9.5 -9q-5 -5 -9.5 -9t-9.5 -10q-5 -5 -9.5 -8t-9.5 -8q-11 -11 -19.5 -20.5t-19.5 -17.5q-38 -38 -73.5 -80.5t-70.5 -86.5q-71 -87 -128.5 -181.5t-101.5 -184.5 q-22 -46 -39.5 -88.5t-31.5 -83.5q-14 -38 -24.5 -73.5t-18.5 -65.5q-5 -30 -11 -54.5t-9 -41.5q-3 -8 -2.5 -15t-2.5 -12v-8q5 19 9.5 35.5t9.5 32.5q0 8 6 19q0 5 5 16q0 5 5 17q0 5 6 16q19 60 49 126q14 30 27.5 58.5t27.5 58.5t27.5 56t29.5 53q57 101 115 189 q11 16 13 22q5 5 8 10.5t9 11.5q5 11 12 20.5t15 17.5q5 11 13.5 20.5t13.5 17.5q5 11 13.5 19t14.5 17q5 11 13 19q3 5 6 8t5 8q8 8 25 30q14 14 24.5 29t21.5 28q14 14 23.5 25t17.5 22q11 14 19.5 22t16.5 19l16 16q3 5 11 14q5 8 10.5 13.5t11.5 10.5zM1445 1021 q22 71 34 132.5t23 116.5q11 52 15 94t7 72q3 14 2.5 25t-0.5 19v14v2q-3 -16 -4 -31t-4 -31q0 -8 -5 -30q0 -11 -3 -14q0 -11 -3 -16q-5 -30 -12 -59t-12 -59q-14 -60 -30.5 -116t-35.5 -111q-5 -14 -9 -26t-10 -25q-3 -11 -8 -28q-3 -5 -4.5 -13.5t-3.5 -13.5 q-5 -8 -11 -25q-3 -5 -3 -6.5t-3 -6.5q0 -5 -1 -6.5t-1 -7.5q-5 -14 -11 -26t-11 -26q-19 -49 -38.5 -98t-40.5 -96q-41 -96 -83.5 -183t-80.5 -166q-5 -11 -11 -19.5t-11 -18.5q-5 -14 -11 -20q-3 -8 -8 -19q-11 -22 -20.5 -39.5t-20.5 -36.5q-5 -8 -9.5 -17.5t-9.5 -18.5 q-5 -8 -9.5 -16t-9.5 -19q-11 -22 -20 -33l-8 -16q-5 -11 -11 -17q-8 -16 -16 -32.5t-19 -32.5q-5 -11 -8 -14l-9 -16q-5 -8 -7.5 -15t-8.5 -15q-8 -14 -16 -27.5t-17 -27.5q-5 -11 -8 -14q-5 -11 -8 -13q-11 -16 -16 -27q-5 -14 -13.5 -25t-14.5 -22q-11 -16 -13 -24 q-5 -5 -8 -11t-6 -11q-14 -22 -25 -41t-24 -36q-11 -19 -20.5 -34t-17.5 -29t-15 -24.5t-13 -18.5q-5 -11 -9 -16.5t-7 -11.5l-6 -11q14 16 26.5 34t25.5 35q14 19 27.5 36.5t27.5 34.5q14 19 26 36.5t26 39.5q5 8 12 18t15 18q5 11 12 20.5t13 17.5q5 11 13.5 20.5 t13.5 20.5l5 8l6 11q8 8 14 19q14 22 26 41t25 38l50 82l13 22l11 19l25 44q46 82 91 166.5t86 169.5t76.5 168t65.5 165q61 155 99 300zM2176 311q11 49 25 99.5t30 102.5l74 213q38 106 79 210t74 200l16 49q3 5 8 22q3 5 3 10.5t3 11.5q8 25 12 46.5t9 43.5q22 87 14 150 q0 16 -2.5 30t-5.5 27q-8 22 -22 41q-3 5 -8 11q-8 8 -11 9l-5 5h-3h3l2 -3l3 -2q3 0 3 -3q3 -3 5 -3q5 -11 11 -16q5 -8 6.5 -16.5t7.5 -19.5q3 -8 2.5 -16t2.5 -19v-3v-6v-8v-19q-3 -35 -8 -68t-14 -66q-11 -33 -20.5 -64t-20.5 -61q-14 -30 -24.5 -59t-21.5 -59 q-22 -57 -42.5 -110t-39.5 -105q-19 -49 -35.5 -95.5t-29.5 -90.5q-27 -87 -44 -155.5t-25 -114.5q0 -14 -1 -23.5t-4 -20.5v-3v-5q0 -5 -3 -8v-14q-3 -8 -3 -19v-6z" />
<glyph unicode="&#xd2;" horiz-adv-x="2331" d="M2108 2411q27 38 71 19q22 -11 30 -16t14 -8q38 -35 83 -62.5t69 -41.5q8 -5 24.5 -14.5t30.5 -22t22 -26t3 -27.5q-30 -38 -66 -46q-11 -5 -31.5 -1.5t-41 9t-38 12.5t-23.5 10q-22 8 -31.5 12t-22.5 9q-44 19 -70 45t-35.5 53.5t-5.5 53.5t18 42zM2340 2196 q-46 19 -84.5 42t-65.5 42q-30 22 -58 44q3 -27 36 -50.5t71 -39.5q46 -22 101 -38zM2179 2073q76 -30 125.5 -90.5t78 -138t38 -169t9.5 -181.5q-3 -213 -54 -465q-90 -380 -213 -652.5t-254 -462.5t-262 -306t-238 -181l-25 -17q-24 -16 -69 -36.5t-108 -44t-139 -36.5 q-63 -14 -132.5 -16.5t-143.5 5.5q-235 25 -377 106.5t-215.5 202t-88.5 265t4 291.5q44 347 256 771q104 197 217.5 349.5t226.5 271.5t222.5 206t204.5 147q14 8 34.5 16.5t42.5 12.5t42.5 0t33.5 -23q14 -22 14 -44q101 76 206 129.5t206 82t192.5 31.5t165.5 -24z M909 939q0 38 5.5 75t11.5 70q5 33 13.5 60t13.5 49q5 11 6.5 19.5t4.5 13.5q0 3 1.5 4.5t1.5 3.5q0 3 2 3q-52 -87 -71 -172t-8 -147q0 -11 3 -17q0 -8 3 -14q0 -5 1 -6.5t1 -6.5q3 -3 3 -5.5t3 -5.5v-6q3 -3 3 -5l5 -11l8 -16q3 -5 4.5 -7t3.5 -7q3 0 3 -1.5t3 -1.5 q0 -3 3 -5l5 -6q-8 14 -13.5 32t-10.5 34q-9 35 -9 76zM317 653q-98 -262 -129 -497q-14 -101 -11 -205t29 -199.5t82 -177.5t152 -137q-128 109 -183 284q-25 74 -36 172.5t1.5 220t53.5 267.5t120 321q106 232 252.5 434t282.5 352q158 175 325 322q-183 -134 -355 -308 q-74 -74 -153 -165.5t-157 -198t-147.5 -229t-126.5 -256.5zM912 1240q8 22 20.5 43.5t25.5 43.5q14 25 28 47q-112 -131 -207.5 -262.5t-158.5 -254.5q-188 -363 -245.5 -629t-14 -442t170.5 -265t305 -100q147 -8 270 27q93 30 179 90.5t163.5 138t144.5 167.5t125 178 q131 208 237 450q161 393 231 667.5t79.5 449.5t-26 262.5t-87.5 106.5q-38 14 -119 5.5t-183 -46.5t-217 -108t-216 -179q-112 -120 -177.5 -222.5t-100.5 -178.5q-16 -41 -37 -121.5t-21 -195.5q0 -14 -1 -42.5t-9.5 -58.5t-23.5 -57.5t-42 -38.5q-55 -27 -100 21t-58 141 q-8 76 8 170.5t57 192.5zM2373 1562v11q-3 3 -3 5v-31t-3 -31q-3 -14 -2.5 -30.5t-2.5 -30.5q-5 -30 -8 -60t-8 -60q-11 -60 -20.5 -116t-23.5 -113q-27 -112 -57 -214.5t-63 -197.5q-35 -96 -73.5 -184.5t-76.5 -168.5q-19 -38 -38.5 -76t-38.5 -74q-11 -19 -20.5 -36.5 t-20.5 -34.5q-5 -8 -9 -16t-10 -17q-5 -8 -9.5 -16t-9.5 -16q-11 -16 -20.5 -31.5t-17.5 -28.5q-14 -16 -19 -30q-5 -5 -9.5 -13.5t-9.5 -14.5q-5 -8 -9.5 -15t-10.5 -12q-11 -16 -19 -27l-16 -25l-16 -25q-71 -96 -123 -155q-14 -16 -25 -28.5t-22 -26.5q-22 -25 -33 -41 l-30 -30q33 27 64.5 57.5t61.5 62.5q30 33 61.5 66t61.5 71q30 35 57.5 73.5t57.5 76.5q52 71 103 158q49 82 93 167t82 172t67 170.5t53 165.5q25 82 41.5 159.5t29.5 148.5q14 71 22 134t14 118q8 106 8 166v44z" />
<glyph unicode="&#xd3;" horiz-adv-x="2331" d="M2308 2193q-8 11 -16.5 19t-13.5 16q-11 -3 -41 -2l-49 2h-23t-37 3t-37 7t-26 12q-14 14 -22 27.5t-14 35.5q0 25 38.5 34.5t57.5 11.5q25 3 71 8.5t93 19.5q5 0 13 3t30 2q33 0 47 -33q3 -8 11 -16q3 -3 3 -5q22 -41 46.5 -79.5t40.5 -57.5q5 -8 15 -21.5t16.5 -28.5 t8 -30t-6.5 -24q-41 -22 -69 -13q-14 0 -28.5 9.5t-29.5 23t-26 24.5t-14 16zM2412 2125q-30 33 -53.5 64t-36.5 59q-16 30 -30 57q-8 -22 9.5 -52t41.5 -60q31 -33 69 -68zM2179 2073q76 -30 125.5 -90.5t78 -138t38 -169t9.5 -181.5q-3 -213 -54 -465 q-90 -380 -213 -652.5t-254 -462.5t-262 -306t-238 -181l-25 -17q-24 -16 -69 -36.5t-108 -44t-139 -36.5q-63 -14 -132.5 -16.5t-143.5 5.5q-235 25 -377 106.5t-215.5 202t-88.5 265t4 291.5q44 347 256 771q104 197 217.5 349.5t226.5 271.5t222.5 206t204.5 147 q14 8 34.5 16.5t42.5 12.5t42.5 0t33.5 -23q14 -22 14 -44q101 76 206 129.5t206 82t192.5 31.5t165.5 -24zM909 939q0 38 5.5 75t11.5 70q5 33 13.5 60t13.5 49q5 11 6.5 19.5t4.5 13.5q0 3 1.5 4.5t1.5 3.5q0 3 2 3q-52 -87 -71 -172t-8 -147q0 -11 3 -17q0 -8 3 -14 q0 -5 1 -6.5t1 -6.5q3 -3 3 -5.5t3 -5.5v-6q3 -3 3 -5l5 -11l8 -16q3 -5 4.5 -7t3.5 -7q3 0 3 -1.5t3 -1.5q0 -3 3 -5l5 -6q-8 14 -13.5 32t-10.5 34q-9 35 -9 76zM317 653q-98 -262 -129 -497q-14 -101 -11 -205t29 -199.5t82 -177.5t152 -137q-128 109 -183 284 q-25 74 -36 172.5t1.5 220t53.5 267.5t120 321q106 232 252.5 434t282.5 352q158 175 325 322q-183 -134 -355 -308q-74 -74 -153 -165.5t-157 -198t-147.5 -229t-126.5 -256.5zM912 1240q8 22 20.5 43.5t25.5 43.5q14 25 28 47q-112 -131 -207.5 -262.5t-158.5 -254.5 q-188 -363 -245.5 -629t-14 -442t170.5 -265t305 -100q147 -8 270 27q93 30 179 90.5t163.5 138t144.5 167.5t125 178q131 208 237 450q161 393 231 667.5t79.5 449.5t-26 262.5t-87.5 106.5q-38 14 -119 5.5t-183 -46.5t-217 -108t-216 -179q-112 -120 -177.5 -222.5 t-100.5 -178.5q-16 -41 -37 -121.5t-21 -195.5q0 -14 -1 -42.5t-9.5 -58.5t-23.5 -57.5t-42 -38.5q-55 -27 -100 21t-58 141q-8 76 8 170.5t57 192.5zM2373 1562v11q-3 3 -3 5v-31t-3 -31q-3 -14 -2.5 -30.5t-2.5 -30.5q-5 -30 -8 -60t-8 -60q-11 -60 -20.5 -116t-23.5 -113 q-27 -112 -57 -214.5t-63 -197.5q-35 -96 -73.5 -184.5t-76.5 -168.5q-19 -38 -38.5 -76t-38.5 -74q-11 -19 -20.5 -36.5t-20.5 -34.5q-5 -8 -9 -16t-10 -17q-5 -8 -9.5 -16t-9.5 -16q-11 -16 -20.5 -31.5t-17.5 -28.5q-14 -16 -19 -30q-5 -5 -9.5 -13.5t-9.5 -14.5 q-5 -8 -9.5 -15t-10.5 -12q-11 -16 -19 -27l-16 -25l-16 -25q-71 -96 -123 -155q-14 -16 -25 -28.5t-22 -26.5q-22 -25 -33 -41l-30 -30q33 27 64.5 57.5t61.5 62.5q30 33 61.5 66t61.5 71q30 35 57.5 73.5t57.5 76.5q52 71 103 158q49 82 93 167t82 172t67 170.5t53 165.5 q25 82 41.5 159.5t29.5 148.5q14 71 22 134t14 118q8 106 8 166v44z" />
<glyph unicode="&#xd4;" horiz-adv-x="2331" d="M2130 2378q27 38 71 19q22 -11 30 -16t14 -8q38 -35 83 -62.5t69 -41.5q8 -5 24.5 -14.5t30.5 -22t22 -26t3 -27.5q-30 -38 -66 -46q-11 -5 -31.5 -1.5t-41 9t-38 12.5t-23.5 10q-22 8 -31.5 12t-22.5 9q-44 19 -70 45t-35.5 53.5t-5.5 53.5t18 42zM2362 2163 q-46 19 -84.5 42t-65.5 42q-30 22 -58 44q3 -27 36 -50.5t71 -39.5q46 -22 101 -38zM2179 2073q76 -30 125.5 -90.5t78 -138t38 -169t9.5 -181.5q-3 -213 -54 -465q-90 -380 -213 -652.5t-254 -462.5t-262 -306t-238 -181l-25 -17q-24 -16 -69 -36.5t-108 -44t-139 -36.5 q-63 -14 -132.5 -16.5t-143.5 5.5q-235 25 -377 106.5t-215.5 202t-88.5 265t4 291.5q44 347 256 771q104 197 217.5 349.5t226.5 271.5t222.5 206t204.5 147q14 8 34.5 16.5t42.5 12.5t42.5 0t33.5 -23q14 -22 14 -44q101 76 206 129.5t206 82t192.5 31.5t165.5 -24z M909 939q0 38 5.5 75t11.5 70q5 33 13.5 60t13.5 49q5 11 6.5 19.5t4.5 13.5q0 3 1.5 4.5t1.5 3.5q0 3 2 3q-52 -87 -71 -172t-8 -147q0 -11 3 -17q0 -8 3 -14q0 -5 1 -6.5t1 -6.5q3 -3 3 -5.5t3 -5.5v-6q3 -3 3 -5l5 -11l8 -16q3 -5 4.5 -7t3.5 -7q3 0 3 -1.5t3 -1.5 q0 -3 3 -5l5 -6q-8 14 -13.5 32t-10.5 34q-9 35 -9 76zM317 653q-98 -262 -129 -497q-14 -101 -11 -205t29 -199.5t82 -177.5t152 -137q-128 109 -183 284q-25 74 -36 172.5t1.5 220t53.5 267.5t120 321q106 232 252.5 434t282.5 352q158 175 325 322q-183 -134 -355 -308 q-74 -74 -153 -165.5t-157 -198t-147.5 -229t-126.5 -256.5zM912 1240q8 22 20.5 43.5t25.5 43.5q14 25 28 47q-112 -131 -207.5 -262.5t-158.5 -254.5q-188 -363 -245.5 -629t-14 -442t170.5 -265t305 -100q147 -8 270 27q93 30 179 90.5t163.5 138t144.5 167.5t125 178 q131 208 237 450q161 393 231 667.5t79.5 449.5t-26 262.5t-87.5 106.5q-38 14 -119 5.5t-183 -46.5t-217 -108t-216 -179q-112 -120 -177.5 -222.5t-100.5 -178.5q-16 -41 -37 -121.5t-21 -195.5q0 -14 -1 -42.5t-9.5 -58.5t-23.5 -57.5t-42 -38.5q-55 -27 -100 21t-58 141 q-8 76 8 170.5t57 192.5zM2373 1562v11q-3 3 -3 5v-31t-3 -31q-3 -14 -2.5 -30.5t-2.5 -30.5q-5 -30 -8 -60t-8 -60q-11 -60 -20.5 -116t-23.5 -113q-27 -112 -57 -214.5t-63 -197.5q-35 -96 -73.5 -184.5t-76.5 -168.5q-19 -38 -38.5 -76t-38.5 -74q-11 -19 -20.5 -36.5 t-20.5 -34.5q-5 -8 -9 -16t-10 -17q-5 -8 -9.5 -16t-9.5 -16q-11 -16 -20.5 -31.5t-17.5 -28.5q-14 -16 -19 -30q-5 -5 -9.5 -13.5t-9.5 -14.5q-5 -8 -9.5 -15t-10.5 -12q-11 -16 -19 -27l-16 -25l-16 -25q-71 -96 -123 -155q-14 -16 -25 -28.5t-22 -26.5q-22 -25 -33 -41 l-30 -30q33 27 64.5 57.5t61.5 62.5q30 33 61.5 66t61.5 71q30 35 57.5 73.5t57.5 76.5q52 71 103 158q49 82 93 167t82 172t67 170.5t53 165.5q25 82 41.5 159.5t29.5 148.5q14 71 22 134t14 118q8 106 8 166v44z" />
<glyph unicode="&#xd5;" horiz-adv-x="2331" d="M2195 2258q-55 55 -101 75.5t-46 39.5q0 22 24.5 33t35.5 11q27 5 54.5 -0.5t32.5 -8.5q46 -19 67 -40.5t35 -32.5q30 -27 58.5 -45t50.5 -30.5t35.5 -26t13.5 -32.5q0 -22 -26 -33t-34 -11h-29t-42.5 9.5t-57.5 30t-71 61.5zM2133 2392q33 -14 60 -31.5t46 -31.5 q22 -16 41 -33q-3 22 -24.5 38.5t-49.5 30.5q-29 13 -73 27zM2179 2073q76 -30 125.5 -90.5t78 -138t38 -169t9.5 -181.5q-3 -213 -54 -465q-90 -380 -213 -652.5t-254 -462.5t-262 -306t-238 -181l-25 -17q-24 -16 -69 -36.5t-108 -44t-139 -36.5q-63 -14 -132.5 -16.5 t-143.5 5.5q-235 25 -377 106.5t-215.5 202t-88.5 265t4 291.5q44 347 256 771q104 197 217.5 349.5t226.5 271.5t222.5 206t204.5 147q14 8 34.5 16.5t42.5 12.5t42.5 0t33.5 -23q14 -22 14 -44q101 76 206 129.5t206 82t192.5 31.5t165.5 -24zM909 939q0 38 5.5 75 t11.5 70q5 33 13.5 60t13.5 49q5 11 6.5 19.5t4.5 13.5q0 3 1.5 4.5t1.5 3.5q0 3 2 3q-52 -87 -71 -172t-8 -147q0 -11 3 -17q0 -8 3 -14q0 -5 1 -6.5t1 -6.5q3 -3 3 -5.5t3 -5.5v-6q3 -3 3 -5l5 -11l8 -16q3 -5 4.5 -7t3.5 -7q3 0 3 -1.5t3 -1.5q0 -3 3 -5l5 -6 q-8 14 -13.5 32t-10.5 34q-9 35 -9 76zM317 653q-98 -262 -129 -497q-14 -101 -11 -205t29 -199.5t82 -177.5t152 -137q-128 109 -183 284q-25 74 -36 172.5t1.5 220t53.5 267.5t120 321q106 232 252.5 434t282.5 352q158 175 325 322q-183 -134 -355 -308 q-74 -74 -153 -165.5t-157 -198t-147.5 -229t-126.5 -256.5zM912 1240q8 22 20.5 43.5t25.5 43.5q14 25 28 47q-112 -131 -207.5 -262.5t-158.5 -254.5q-188 -363 -245.5 -629t-14 -442t170.5 -265t305 -100q147 -8 270 27q93 30 179 90.5t163.5 138t144.5 167.5t125 178 q131 208 237 450q161 393 231 667.5t79.5 449.5t-26 262.5t-87.5 106.5q-38 14 -119 5.5t-183 -46.5t-217 -108t-216 -179q-112 -120 -177.5 -222.5t-100.5 -178.5q-16 -41 -37 -121.5t-21 -195.5q0 -14 -1 -42.5t-9.5 -58.5t-23.5 -57.5t-42 -38.5q-55 -27 -100 21t-58 141 q-8 76 8 170.5t57 192.5zM2373 1562v11q-3 3 -3 5v-31t-3 -31q-3 -14 -2.5 -30.5t-2.5 -30.5q-5 -30 -8 -60t-8 -60q-11 -60 -20.5 -116t-23.5 -113q-27 -112 -57 -214.5t-63 -197.5q-35 -96 -73.5 -184.5t-76.5 -168.5q-19 -38 -38.5 -76t-38.5 -74q-11 -19 -20.5 -36.5 t-20.5 -34.5q-5 -8 -9 -16t-10 -17q-5 -8 -9.5 -16t-9.5 -16q-11 -16 -20.5 -31.5t-17.5 -28.5q-14 -16 -19 -30q-5 -5 -9.5 -13.5t-9.5 -14.5q-5 -8 -9.5 -15t-10.5 -12q-11 -16 -19 -27l-16 -25l-16 -25q-71 -96 -123 -155q-14 -16 -25 -28.5t-22 -26.5q-22 -25 -33 -41 l-30 -30q33 27 64.5 57.5t61.5 62.5q30 33 61.5 66t61.5 71q30 35 57.5 73.5t57.5 76.5q52 71 103 158q49 82 93 167t82 172t67 170.5t53 165.5q25 82 41.5 159.5t29.5 148.5q14 71 22 134t14 118q8 106 8 166v44z" />
</font>
</defs>
</svg>
