<?xml version="1.0" standalone="no"?>
<!DOCTYPE svg PUBLIC "-//W3C//DTD SVG 1.1//EN" "http://www.w3.org/Graphics/SVG/1.1/DTD/svg11.dtd" >
<svg xmlns="http://www.w3.org/2000/svg" xmlns:xlink="http://www.w3.org/1999/xlink" version="1.1">
<metadata></metadata>
<defs>
<font id="rochesterregular" horiz-adv-x="809" >
<font-face units-per-em="2048" ascent="1638" descent="-410" />
<missing-glyph horiz-adv-x="471" />
<glyph horiz-adv-x="0" />
<glyph unicode="&#xd;" horiz-adv-x="471" />
<glyph unicode=" "  horiz-adv-x="471" />
<glyph unicode="&#x09;" horiz-adv-x="471" />
<glyph unicode="&#xa0;" horiz-adv-x="471" />
<glyph unicode="!" horiz-adv-x="430" d="M123 92q0 19 7 36t19 29.5t29 19.5t37 7q19 0 36 -7t29.5 -19.5t19.5 -29.5t7 -36t-7 -36t-19.5 -29.5t-29.5 -19.5t-36 -7t-36 7t-29.5 19.5t-19.5 29.5t-7 36zM190 977q0 99 0.5 197t4.5 200q1 16 12 28t25.5 20t30 12t24.5 4q18 0 29.5 -7.5t11.5 -41.5 q0 -29 -3.5 -82t-9 -122.5t-12.5 -150t-14.5 -164t-15 -165t-13 -152.5t-9.5 -127t-5 -88l-51 2q0 159 -2.5 317t-2.5 320z" />
<glyph unicode="&#x22;" horiz-adv-x="410" d="M82 1403h92v-328h-61zM236 1075v328h92l-31 -328h-61z" />
<glyph unicode="#" horiz-adv-x="942" d="M82 674q0 17 7.5 21.5t16.5 4.5q16 0 61 -1t118 -1q2 45 2 91.5v93.5h-74.5h-50t-34.5 -0.5t-26 -1.5q-11 0 -15.5 16.5t-4.5 32.5q0 17 7.5 21.5t16.5 4.5q16 0 61.5 -1t121.5 -1v72.5v50t-0.5 34.5t-1.5 26q0 9 16 14.5t33 5.5t21.5 -7.5t4.5 -16.5q0 -16 -1 -61 t-1 -120h91.5t93.5 -2v75v51t-0.5 35t-1.5 26q0 9 16 14.5t33 5.5t21.5 -7.5t4.5 -16.5q0 -16 -1 -61.5t-1 -121.5h72.5h50t34.5 0.5t26 1.5q9 0 14.5 -16t5.5 -33t-7.5 -21.5t-16.5 -4.5q-16 0 -61 1t-120 1v-93.5t-2 -91.5h75h51t35 0.5t26 1.5q9 0 14.5 -16t5.5 -33 t-7.5 -21.5t-16.5 -4.5q-16 0 -61.5 1t-121.5 1v-73.5v-49.5t0.5 -34t1.5 -26q0 -11 -16.5 -15.5t-32.5 -4.5q-17 0 -21.5 7.5t-4.5 16.5q0 16 1 61t1 118q-47 2 -93.5 2h-91.5v-74.5v-50t0.5 -34.5t1.5 -26q0 -11 -16.5 -15.5t-32.5 -4.5q-17 0 -21.5 7.5t-4.5 16.5 q0 16 1 61.5t1 121.5h-73.5h-49.5t-34 -0.5t-26 -1.5q-11 0 -15.5 16.5t-4.5 32.5zM356 696h93.5t91.5 -2q2 47 2 93.5v91.5q-45 2 -91.5 2h-93.5v-91.5t-2 -93.5z" />
<glyph unicode="$" horiz-adv-x="1034" d="M113 479q0 28 8.5 53t22 46t31.5 39t36 33q43 34 98 59l23 -47q-25 -19 -43 -45q-17 -23 -30 -56t-13 -76q0 -41 14.5 -78t43 -66.5t70.5 -49.5t97 -27v518q-59 31 -116 64.5t-101.5 74.5t-72 93t-27.5 119q0 80 26 141t69.5 104.5t101 70t120.5 38.5v135h61v-129 q7 2 13 2h14q58 -1 112.5 -15t96.5 -41.5t67 -68t25 -94.5q0 -32 -9 -59.5t-23 -51t-32.5 -42.5t-37.5 -34q-45 -35 -101 -59l-36 39q29 25 53 57q20 27 36.5 63t16.5 81q0 50 -15.5 84.5t-42.5 56.5t-62.5 31.5t-74.5 9.5v-528q67 -36 134.5 -72t122 -79.5t88.5 -98.5 t34 -131q0 -63 -25 -122t-73.5 -105t-119 -74.5t-161.5 -30.5v-211h-61v213q-72 5 -137 28.5t-114 59.5t-78 81.5t-29 96.5zM256 1217q0 -46 17 -83.5t46 -69t68 -58.5t84 -52v494q-42 -7 -81 -25.5t-69 -47.5t-47.5 -69t-17.5 -89zM532 262q58 1 105.5 17.5t81 45 t51.5 67.5t18 85q0 48 -21 86.5t-56 71t-81.5 60.5t-97.5 55v-488z" />
<glyph unicode="%" horiz-adv-x="1290" d="M123 1055q0 69 18 127t51 100.5t78 66t99 23.5q58 0 107 -28.5t83 -79.5q35 -22 88 -39t131 -17q46 0 82.5 6t64.5 15t49.5 20.5t37.5 22.5l35 51l75 -53l-868 -1241l-76 53l774 1106q-35 -14 -79 -22.5t-95 -8.5q-60 0 -105 9.5t-79 23.5q9 -31 14.5 -64.5t5.5 -70.5 q0 -69 -18 -127.5t-50.5 -101t-77.5 -66t-99 -23.5t-99 23.5t-78 66t-51 101t-18 127.5zM246 1055q0 -58 4.5 -107t18 -84.5t37.5 -55.5t63 -20q38 0 62 20t37.5 55.5t18.5 84.5t5 107q0 57 -5 106t-18.5 84.5t-37.5 55.5t-62 20q-39 0 -63 -20t-37.5 -55.5t-18 -84.5 t-4.5 -106zM676 317q0 69 18 127.5t51 101t78 66t99 23.5t99 -23.5t77.5 -66t50.5 -101t18 -127.5t-18 -127t-50.5 -100.5t-77.5 -66t-99 -23.5t-99 23.5t-78 66t-51 100.5t-18 127zM799 317q0 -57 4.5 -106t18 -84.5t37.5 -55.5t63 -20q38 0 62 20t37.5 55.5t18 84.5 t4.5 106q0 58 -4.5 107t-18 84.5t-37.5 55.5t-62 20q-39 0 -63 -20t-37.5 -55.5t-18 -84.5t-4.5 -107z" />
<glyph unicode="&#x26;" horiz-adv-x="1516" d="M123 467q0 108 34.5 189.5t89 140t120.5 96.5t129 59q-39 20 -76.5 49t-66.5 65t-46.5 79.5t-17.5 93.5q0 70 30 127t78.5 97t110.5 61.5t127 21.5q78 0 134 -17.5t91 -45t51.5 -62.5t16.5 -69q0 -29 -10.5 -56t-30 -47.5t-47.5 -32.5t-62 -12q-26 0 -47 9.5t-37 21.5 t-26 24t-13 17l33 20q5 -5 14.5 -12t21.5 -13.5t25.5 -11t28.5 -4.5q40 0 64 29t24 68q0 23 -10.5 46.5t-32.5 43t-56.5 31.5t-82.5 12q-63 0 -111 -23t-80 -61.5t-48.5 -87t-16.5 -99.5q0 -38 9.5 -74t28 -67.5t47 -57t67.5 -40.5q20 5 38 6.5t33 1.5q26 0 41 -7.5 t15 -21.5q0 -21 -17 -32t-45 -11q-17 0 -36.5 3t-41.5 10q-69 -16 -121 -55.5t-87 -94.5t-52.5 -120.5t-17.5 -133.5q0 -82 25.5 -162t77.5 -143t129 -102t181 -39q73 0 141.5 23t121 68t84.5 111t32 152q0 69 -23 121.5t-61 89.5q-41 -17 -81.5 -34t-83 -31t-86.5 -22.5 t-91 -8.5q-36 0 -62.5 9t-44 23.5t-26 33.5t-8.5 40q0 32 17.5 57t47.5 42.5t70.5 26.5t85.5 9q48 0 99.5 -10.5t101.5 -32.5q63 31 133 55.5t152 24.5q55 0 95 -14.5t66.5 -37.5t39 -52t12.5 -58q0 -27 -10 -52t-29.5 -45t-47.5 -32t-63 -12l-4 41q38 0 62 21t24 47 q0 13 -7.5 26t-23 23t-41 16t-61.5 6q-47 0 -91 -11t-89 -28q42 -42 67 -97.5t25 -127.5q0 -105 -41.5 -186t-111 -136t-160.5 -83.5t-189 -28.5t-191 29t-166.5 87t-118 146t-44.5 205zM602 680q0 -16 18 -26.5t58 -10.5q46 0 95.5 20t105.5 48q-38 14 -75 20t-69 6 q-57 0 -95 -15.5t-38 -41.5z" />
<glyph unicode="'" horiz-adv-x="276" d="M82 1403h113l-21 -328h-72z" />
<glyph unicode="(" horiz-adv-x="686" d="M123 778q0 154 26 276.5t68 218t94 165t103 117t97 75t75 37.5l16 -47q-19 -7 -51.5 -31t-69.5 -68t-75.5 -110t-69.5 -157t-50.5 -209t-19.5 -267t19.5 -267t50.5 -209t69.5 -157t75.5 -109.5t69.5 -67.5t51.5 -31l-16 -48q-29 10 -75 37.5t-97 75t-103 117t-94 165 t-68 218.5t-26 276z" />
<glyph unicode=")" horiz-adv-x="686" d="M84 -63q19 7 51.5 31t69.5 67.5t75.5 109.5t69.5 157t50.5 209.5t19.5 266.5t-19.5 266.5t-50.5 209.5t-69.5 157t-75.5 110t-69.5 68t-51.5 31l16 47q29 -10 75 -37.5t97 -75t103 -117t94 -165t68 -218t26 -276.5t-26 -276.5t-68 -218t-94 -165t-103 -117t-97 -75 t-75 -37.5z" />
<glyph unicode="*" horiz-adv-x="799" d="M123 1229l233 -41l-153 178l129 51l69 -205l86 224l101 -84l-146 -166l236 41l-23 -129l-211 39l142 -160l-109 -88l-80 225l-73 -209l-121 49l155 183l-217 -37z" />
<glyph unicode="+" horiz-adv-x="829" d="M123 532v82h246v256h92v-256h246v-82h-246v-266h-92v266h-246z" />
<glyph unicode="," horiz-adv-x="399" d="M82 131q0 19 7 36t19.5 30t29 20.5t34.5 7.5q23 0 42 -9.5t33 -26.5t21.5 -40t7.5 -49q0 -52 -23 -96t-50 -76q-32 -38 -72 -69l-29 26q9 6 21.5 19.5t23 30.5t18 36t7.5 37q0 12 -14 20.5t-31 20.5t-31 30.5t-14 51.5z" />
<glyph unicode="-" horiz-adv-x="737" d="M123 532v82h491v-82h-491z" />
<glyph unicode="." horiz-adv-x="389" d="M82 92q0 19 7 36t19.5 29.5t29.5 19.5t36 7t36 -7t29.5 -19.5t19.5 -29.5t7 -36t-7 -36t-19.5 -29.5t-29.5 -19.5t-36 -7t-36 7t-29.5 19.5t-19.5 29.5t-7 36z" />
<glyph unicode="/" horiz-adv-x="788" d="M127 -94l463 1722l72 -18l-463 -1723z" />
<glyph unicode="0" horiz-adv-x="1167" d="M133 748q0 161 27 298t83 236.5t140.5 156t200.5 56.5q115 0 200 -56.5t140.5 -156t82.5 -236.5t27 -298q0 -162 -27 -299t-82.5 -236.5t-140.5 -156t-200 -56.5q-116 0 -200.5 56.5t-140.5 156t-83 236.5t-27 299zM297 748q0 -135 13 -260.5t45.5 -222.5t88 -155.5 t140.5 -58.5q84 0 139.5 58.5t88 155.5t45.5 222.5t13 260.5q0 89 -5.5 175.5t-18.5 164t-34.5 143t-53.5 113t-75 74t-99 26.5q-57 0 -100 -26.5t-75 -74t-53.5 -113t-34.5 -143t-18.5 -164t-5.5 -175.5z" />
<glyph unicode="1" horiz-adv-x="778" d="M41 1157v51q55 0 111 25.5t103.5 66t83 92t50.5 103.5h92v-1345q0 -39 17 -54.5t55 -17.5l154 -6v-72h-635v72l184 6q38 2 55 17.5t17 54.5v1079q-39 -20 -85 -36q-39 -14 -91 -25t-111 -11z" />
<glyph unicode="2" horiz-adv-x="1096" d="M80 39q0 127 33.5 223.5t88 171.5t124.5 134t143 111t143 101.5t124.5 106t88 124t33.5 156.5q0 69 -23 126t-64 97.5t-97 62.5t-121 22q-77 0 -137 -29.5t-101.5 -73.5t-63.5 -96t-22 -98t13.5 -78.5t36 -53.5t51 -30.5t59.5 -9.5q34 0 66.5 10t60.5 28l33 -40 q-15 -23 -38 -48t-52 -45.5t-63.5 -33.5t-73.5 -13q-41 0 -79.5 14t-68 43.5t-47.5 75t-18 109.5q0 65 30.5 139t89.5 136.5t144.5 103.5t195.5 41q81 0 156.5 -31t134 -85.5t94 -130t35.5 -163.5q0 -98 -28.5 -169t-77 -124.5t-112.5 -94.5t-133.5 -78.5t-141 -76.5 t-135.5 -88.5t-116 -115t-83 -156.5q15 20 32 37t38.5 30t47.5 20t58 7q36 0 73.5 -10.5t76 -26.5t77 -34.5t76.5 -34.5t75 -26.5t72 -10.5q30 0 54 4t43.5 15t35.5 31.5t31 53.5l35 -8q-5 -44 -19.5 -90t-42.5 -84t-71 -62t-106 -24q-39 0 -78.5 14.5t-78.5 36t-77 47 t-75 47t-72 36t-68 14.5q-32 0 -57 -13t-43.5 -33.5t-31 -44.5t-21 -45.5t-13 -38t-6.5 -20.5h-45q0 9 -1 19.5t-1 19.5z" />
<glyph unicode="3" horiz-adv-x="1126" d="M92 307q0 42 11.5 83.5t31 79t46 71t57.5 59.5l36 -27q-24 -48 -35.5 -97.5t-11.5 -98.5q0 -80 27 -140t71 -100t100.5 -60t115.5 -20q58 0 114 20t100.5 59t71.5 97.5t27 135.5q0 66 -26.5 133.5t-79.5 122t-132.5 89t-185.5 34.5l-20 51q63 33 128.5 79t118.5 103.5 t87 127.5t34 151q0 52 -16.5 90t-44 62.5t-64.5 36t-78 11.5q-47 0 -91 -18t-79 -50.5t-56 -76.5t-21 -96q0 -47 17 -81.5t38 -57.5q24 -27 55 -46l-22 -45q-55 12 -94.5 34t-65.5 50.5t-38.5 62t-12.5 68.5q0 55 27.5 109.5t79 98.5t124.5 71.5t164 27.5q64 0 125.5 -14 t109 -43.5t76.5 -75t29 -108.5q0 -52 -24.5 -102t-62 -96.5t-83 -87t-87 -73.5t-74.5 -56.5t-46 -35.5q107 -4 191 -37t141.5 -86t88 -122t30.5 -144q0 -72 -21 -132t-58 -108t-87 -84t-107.5 -60t-120 -36t-124.5 -12q-79 0 -152 19t-129 57.5t-89.5 96.5t-33.5 136z" />
<glyph unicode="4" horiz-adv-x="1065" d="M72 549q167 148 272.5 285.5t165.5 258.5t82 223t22 179h164q0 -90 -28.5 -178.5t-75.5 -173.5t-106 -164t-120 -149.5t-118.5 -131t-100.5 -106.5q14 2 29.5 4t38.5 2q66 0 123 -21.5t108.5 -49.5t100 -55.5t96.5 -39.5q6 178 6 375v135l143 41q0 -49 -0.5 -111.5 t-1.5 -134t-2.5 -150t-3.5 -159.5q22 3 43.5 10t48.5 23l25 -31q-26 -22 -57 -35.5t-62 -19.5q-3 -94 -7 -189t-9 -186h-143q5 90 10 183.5t8 193.5q-52 12 -101.5 40.5t-101.5 58t-109 51.5t-124 22q-34 0 -61.5 -7t-49.5 -17t-38.5 -20.5t-28.5 -17.5z" />
<glyph unicode="5" horiz-adv-x="1188" d="M121 307q0 42 11 83.5t30.5 79t46 71t57.5 59.5l37 -27q-25 -48 -36 -97.5t-11 -98.5q0 -68 21.5 -130.5t63.5 -110.5t105 -76.5t146 -28.5q78 0 140 29t104.5 77.5t65 112.5t22.5 135q0 61 -17.5 124t-54 121.5t-93 110t-133.5 89.5t-176 60.5t-221 22.5l41 539h484 q30 0 59.5 1.5t55.5 6t47.5 13t35.5 22.5l35 -27q-32 -38 -64 -70t-72.5 -55t-94 -36t-127.5 -13h-295l-25 -303q135 -4 244 -27.5t193.5 -62t145.5 -89.5t100.5 -109.5t58 -122t18.5 -127.5q0 -91 -35 -176t-100 -151t-157 -106t-206 -40q-88 0 -169.5 22.5t-143.5 65 t-99.5 103t-37.5 136.5z" />
<glyph unicode="6" horiz-adv-x="1106" d="M123 616q0 116 26.5 223t73 200.5t108.5 171.5t132.5 137t146 96t148.5 49l16 -39q-41 -18 -89 -46.5t-97.5 -71.5t-97.5 -101.5t-88 -136t-70 -176t-43 -220.5q10 17 36.5 47t67.5 59.5t96 51t123 21.5q94 0 170 -32t128.5 -86.5t81 -126.5t28.5 -153q0 -114 -35.5 -204 t-95.5 -152.5t-139.5 -95.5t-167.5 -33q-99 0 -183.5 44t-145.5 125t-95.5 195t-34.5 254zM307 461q0 -89 22 -164.5t60 -130.5t89 -86t110 -31q51 0 100 27.5t86.5 78.5t60.5 123t23 162q0 87 -18 157.5t-51 120t-81 76.5t-108 27q-54 0 -107 -27.5t-94 -75.5t-66.5 -114 t-25.5 -143z" />
<glyph unicode="7" horiz-adv-x="963" d="M68 1249q0 55 11.5 100t35.5 77.5t60 50.5t85 18q58 0 115 -13t114.5 -28t118 -28t125.5 -13q42 0 72.5 7.5t50.5 17.5q23 11 39 26l25 -30q-98 -103 -169 -195.5t-121 -176t-80.5 -159.5t-47.5 -145.5t-23 -132.5t-6 -121q0 -89 8.5 -155t19 -115.5t19 -87t8.5 -70.5 q0 -42 -21.5 -59t-53.5 -17q-35 0 -62.5 9.5t-47 35.5t-30 72t-10.5 119q0 149 29 296t84 284t134 259t179 221q-14 -3 -31.5 -4.5t-35.5 -1.5q-42 0 -94 6.5t-106 15t-107.5 15t-98.5 6.5q-60 0 -95.5 -18.5t-41.5 -65.5h-51z" />
<glyph unicode="8" horiz-adv-x="1188" d="M121 393q0 91 32 160t84 122.5t119 96t136 80.5q-49 34 -92 71.5t-75.5 79.5t-51.5 90t-19 105q0 75 30 134t79 100t111.5 62.5t127.5 21.5q75 0 138.5 -20.5t110 -58t73 -90.5t26.5 -118q0 -59 -19 -104.5t-51.5 -82.5t-76 -68t-92.5 -59q68 -43 135 -89.5t119.5 -103 t85 -124t32.5 -152.5q0 -107 -41.5 -193t-109 -146.5t-154 -93.5t-176.5 -33q-100 0 -187.5 29.5t-153 83.5t-103 130t-37.5 170zM254 385q0 -87 29.5 -153t78.5 -110.5t111.5 -67.5t128.5 -23q67 0 128 20.5t107.5 62.5t74.5 105.5t28 149.5q0 78 -36 140.5t-93 115.5 t-128.5 99.5t-141.5 94.5q-57 -34 -109 -73.5t-91.5 -91t-63 -117.5t-23.5 -152zM377 1260q0 -49 23 -90.5t61.5 -79t89 -72t106.5 -68.5q41 27 76 57t60.5 65.5t40 76.5t14.5 90q0 52 -16.5 95.5t-48 74.5t-77.5 48.5t-104 17.5q-45 0 -86 -15t-72 -42.5t-49 -67.5t-18 -90 z" />
<glyph unicode="9" horiz-adv-x="1075" d="M102 1008q0 114 34 204t92 152.5t136 95.5t166 33q99 0 180 -40t138.5 -118t89 -194t31.5 -267q0 -116 -25 -222.5t-69 -200t-103.5 -171.5t-128 -137t-142.5 -96t-147 -49l-16 39q41 18 87.5 46.5t94 71.5t92.5 101.5t83 135.5t66.5 175.5t41.5 220.5q-11 -17 -34 -47 t-60 -59t-89 -50.5t-120 -21.5q-95 0 -169 32t-125 86.5t-77.5 126.5t-26.5 153zM274 1051q0 -87 14.5 -157.5t44.5 -120t74.5 -76.5t104.5 -27q54 0 103.5 28t87 78.5t59.5 121.5t22 157q0 95 -18.5 167.5t-53 121t-82.5 73.5t-106 25q-51 0 -96.5 -27.5t-79.5 -78.5 t-54 -123t-20 -162z" />
<glyph unicode=":" horiz-adv-x="430" d="M123 154q0 19 7 36t19.5 29.5t29.5 19.5t36 7t36 -7t29.5 -19.5t19.5 -29.5t7 -36q0 -20 -7 -36.5t-19.5 -29.5t-29.5 -20t-36 -7t-36 7t-29.5 20t-19.5 29.5t-7 36.5zM123 625q0 19 7 36t19.5 29.5t29.5 19.5t36 7t36 -7t29.5 -19.5t19.5 -29.5t7 -36q0 -20 -7 -36.5 t-19.5 -29.5t-29.5 -20t-36 -7t-36 7t-29.5 20t-19.5 29.5t-7 36.5z" />
<glyph unicode=";" horiz-adv-x="430" d="M123 625q0 19 7 36t19.5 29.5t29.5 19.5t36 7t36 -7t29.5 -19.5t19.5 -29.5t7 -36q0 -20 -7 -36.5t-19.5 -29.5t-29.5 -20t-36 -7t-36 7t-29.5 20t-19.5 29.5t-7 36.5zM125 152q0 19 8.5 36t22.5 30t32 20.5t37 7.5q47 0 75 -35t28 -88q0 -52 -23 -96t-51 -77 q-33 -39 -74 -71l-28 27q9 6 21 19.5t22.5 30.5t18 36t7.5 37q0 12 -15 20t-33 20t-33 31t-15 52z" />
<glyph unicode="&#x3c;" horiz-adv-x="932" d="M123 645l655 379l31 -61l-533 -318l533 -317l-31 -62z" />
<glyph unicode="=" d="M123 543v61h563v-61h-563zM123 686v62h563v-62h-563z" />
<glyph unicode="&#x3e;" horiz-adv-x="932" d="M123 328l532 317l-532 318l31 61l655 -379l-655 -379z" />
<glyph unicode="?" horiz-adv-x="891" d="M123 1075q0 61 29 108.5t75.5 79t104 48t114.5 16.5q64 0 122 -19.5t102.5 -57.5t71 -94.5t26.5 -131.5q0 -47 -26 -86t-65 -78.5t-85 -83t-85 -97.5t-65 -123.5t-26 -160.5v-20h-45q-2 14 -3 28q-2 12 -2.5 25.5t-0.5 24.5q0 112 23 193t57.5 139.5t75 100.5t75 76 t57.5 66t23 72q0 43 -19 78t-49.5 60t-70.5 38.5t-82 13.5q-39 0 -76.5 -12.5t-67 -39t-47.5 -67t-18 -96.5q0 -53 16 -92.5t35 -66t34.5 -39.5t14.5 -13l-24 -41q-1 0 -16 4.5t-37 15.5t-47.5 29.5t-47.5 46.5t-36.5 66.5t-14.5 89.5zM307 92q0 19 7 36t19.5 29.5 t29.5 19.5t36 7t36 -7t30 -19.5t20 -29.5t7 -36t-7 -36t-20 -29.5t-30 -19.5t-36 -7t-36 7t-29.5 19.5t-19.5 29.5t-7 36z" />
<glyph unicode="@" horiz-adv-x="1188" d="M123 442q0 87 31 171t92.5 150.5t152.5 107t211 40.5q100 0 183.5 -31.5t144 -88t94 -134.5t33.5 -170q0 -72 -17 -130t-44.5 -98.5t-63 -62.5t-72.5 -22q-24 0 -46.5 7.5t-41.5 23.5t-33 39t-20 55q-32 -63 -82 -93t-104 -30q-53 0 -92.5 21t-65.5 55.5t-38.5 79 t-12.5 92.5q0 52 15.5 103t45.5 91.5t75 65.5t105 25q53 0 101.5 -25t77.5 -78l4 56q2 18 23 23t44 5q14 0 20.5 -5t6.5 -19q0 -7 -5 -30.5t-10.5 -64t-10.5 -97.5t-5 -132q0 -53 15 -77.5t38 -24.5q42 0 61 61t19 186q0 80 -20.5 146.5t-62.5 114.5t-106.5 75t-152.5 27 q-64 0 -127 -26t-113 -78.5t-81 -132t-31 -187.5q0 -80 24.5 -147t70.5 -115.5t110.5 -75.5t144.5 -27q40 0 75 4.5t61 10.5q30 7 55 16l16 -43q-27 -14 -60 -25q-28 -9 -65.5 -16.5t-81.5 -7.5q-123 0 -214.5 37.5t-151.5 99.5t-89.5 141.5t-29.5 163.5zM451 428 q0 -38 8 -73t24 -62t40.5 -43.5t56.5 -16.5q25 0 51.5 16.5t48 50.5t35.5 85t14 119q0 36 -10.5 64t-28 46.5t-40.5 28.5t-48 10q-38 0 -66 -19.5t-47 -51.5t-28.5 -72t-9.5 -82z" />
<glyph unicode="A" horiz-adv-x="1352" d="M-31 276q0 138 30.5 271t84.5 257.5t127 238t157 210.5t176 175.5t184 134.5t179.5 86t163.5 30q84 0 134 -42.5t50 -120.5q0 -52 -20.5 -101.5t-54 -95t-76 -86t-85.5 -73t-83.5 -57t-69.5 -38.5l-30 41q25 13 57.5 36t65.5 54t64.5 68.5t56.5 79t40 86t15 88.5 q0 43 -22.5 71.5t-72.5 28.5q-59 0 -128 -30.5t-142 -86.5t-146.5 -133.5t-141.5 -171t-126.5 -200t-102 -221t-68.5 -233t-25 -235.5q0 -54 8 -99.5t26 -78t47 -50.5t72 -18q54 0 106 24.5t101 66.5t94.5 98t85.5 120t74.5 131.5t61.5 133.5q7 75 16 143.5t18 122.5 t17 89.5t14 43.5q4 7 17 16t29.5 16.5t33.5 13t29 5.5q30 0 30 -30q0 -28 -4 -65t-11 -77t-16.5 -80.5t-21.5 -74.5q-8 -109 -13 -209.5t-5 -190.5q0 -88 4.5 -139t14 -77t24.5 -33t35 -7q27 0 56 17t57 44t53.5 60t47 64.5t37 59t23.5 42.5l31 62l41 -31l-31 -62 q-8 -15 -26 -48.5t-45 -74t-61 -84t-73 -79.5t-82 -59t-88 -23q-41 0 -73 14t-54 49.5t-33.5 97t-11.5 156.5q0 37 1.5 70.5t4.5 81.5q-51 -99 -117.5 -191t-142.5 -163t-158.5 -113.5t-166.5 -42.5q-53 0 -101 19t-85 58.5t-59 101.5t-22 148z" />
<glyph unicode="B" horiz-adv-x="1402" d="M-11 440q0 135 25 279t74 281.5t121 261t166 216t209.5 147t250.5 54.5q77 0 139.5 -20.5t106.5 -60t68 -96.5t24 -130q0 -89 -35 -167.5t-88.5 -144.5t-117 -119.5t-120.5 -92.5q80 -7 159.5 -38.5t143 -87t103 -134t39.5 -178.5q0 -82 -23.5 -147.5t-62.5 -117 t-88.5 -88.5t-100.5 -61t-100.5 -35.5t-87.5 -11.5q-96 0 -159.5 23t-101 56.5t-52.5 70.5t-15 65q0 43 18.5 82.5t49.5 71.5t72 56.5t85 37.5l21 -33q-63 -34 -93 -87.5t-30 -107.5q0 -30 12.5 -62.5t38 -59.5t64 -44.5t90.5 -17.5q76 0 142 28.5t114.5 79t76 118.5 t27.5 147q0 81 -33.5 143t-89 104.5t-128 64.5t-150.5 22q-32 0 -63 -3.5t-58.5 -9t-49.5 -10.5t-34 -8l-10 10l92 143q11 3 25 7q12 3 29 6.5t38 5.5q48 29 100.5 73.5t96 103t72 131.5t28.5 159q0 145 -69 219t-197 74q-74 0 -149 -31.5t-144.5 -96.5t-130 -164t-105 -233 t-70.5 -305t-26 -379q0 -86 7.5 -159t23 -126.5t38.5 -83.5t54 -30t49.5 45.5t28 119t12 164.5t2.5 183q0 140 -4 263.5t-8.5 220.5t-8.5 162t-5 87l116 35q5 -8 14 -48t18 -105.5t15.5 -152t6.5 -186.5q0 -169 -9.5 -296.5t-27 -221t-39.5 -155.5t-48.5 -98.5t-55 -52 t-56.5 -15.5q-61 0 -109.5 41.5t-82.5 110t-52 157t-18 182.5z" />
<glyph unicode="C" horiz-adv-x="1116" d="M-11 709q0 169 28.5 306.5t77 245t113 186.5t135.5 130.5t145 76.5t142 25q89 0 164 -30.5t129 -86t84.5 -135t30.5 -176.5q0 -93 -28.5 -175t-76 -143.5t-109 -97.5t-128.5 -36q-45 0 -84 16t-68 45t-46 71t-17 93q0 49 15 94.5t38 84t50.5 68t53.5 46.5l27 -27 q-21 -24 -39.5 -51.5t-32.5 -59t-22 -67.5t-8 -78q0 -43 10.5 -77t29 -58t42.5 -36.5t51 -12.5q37 0 74 27.5t66 81t47 131.5t18 180q0 92 -20.5 159.5t-56.5 111.5t-85 65.5t-105 21.5q-40 0 -91 -17.5t-104.5 -57.5t-104.5 -105.5t-91.5 -162t-65 -226.5t-24.5 -299 q0 -180 41 -314t108.5 -223t154 -133.5t177.5 -44.5q65 0 128.5 24t123.5 72t115.5 120t103.5 169l11 21l41 -31l-11 -21q-55 -111 -121.5 -195t-141.5 -140.5t-155.5 -85.5t-164.5 -29q-72 0 -142.5 20.5t-134 62t-118 104.5t-94.5 147.5t-62.5 191t-22.5 234.5z" />
<glyph unicode="D" horiz-adv-x="1554" d="M-220 20q0 27 14.5 48t48.5 35.5t88.5 22t135.5 7.5q63 0 124 -6.5t121 -15.5l27 28q21 25 32 63.5t16 99.5t6 149.5t1 214.5q0 122 1.5 208.5t7.5 148.5t18 105.5t32.5 80t51.5 72t74 81.5l51 -45q-22 -21 -34.5 -51.5t-18.5 -72t-7.5 -94t-1.5 -118.5v-563 q0 -65 -14 -113.5t-37.5 -86.5t-53.5 -68t-62 -56q59 -12 115 -24t108.5 -22t101 -16.5t92.5 -6.5q82 0 146 36t111 98.5t79.5 147t52.5 181.5t28.5 203t8.5 210q0 165 -42 296t-124.5 222.5t-205 140t-283.5 48.5q-116 0 -202 -18.5t-147.5 -49t-100.5 -69.5t-61.5 -80.5 t-31 -82.5t-8.5 -75q0 -40 6.5 -78.5t26 -68.5t55.5 -48t96 -18q20 0 33 2.5t22 6.5q10 4 17 9l12 -59q-15 -11 -50.5 -19t-76.5 -8q-60 0 -111.5 21t-89.5 57.5t-59.5 84.5t-21.5 102q0 93 49 176.5t137 147t209.5 101t265.5 37.5q198 0 358.5 -63.5t274.5 -176.5t176 -269 t62 -341q0 -119 -23 -230t-66 -209t-105.5 -179t-141 -139.5t-172 -90.5t-199.5 -32q-108 0 -218 20t-218 43q-37 -21 -76 -36.5t-78 -26t-76.5 -16t-70.5 -5.5q-100 0 -152.5 23t-52.5 69zM-159 20q0 -20 33 -30t111 -10q60 0 114.5 13t102.5 38q-66 12 -131 21t-127 9 q-16 0 -34 -1t-33.5 -5t-25.5 -12t-10 -23z" />
<glyph unicode="E" horiz-adv-x="1269" d="M-21 440q0 114 35.5 198.5t91.5 144.5t124.5 99.5t135.5 63.5q-64 24 -113 61t-82.5 82.5t-51 97t-17.5 103.5q0 94 39 166.5t101.5 122t141 75t158.5 25.5q66 0 126.5 -16t105.5 -45q24 5 50.5 7.5t55.5 2.5v-41q-17 0 -32 -1t-29 -3q29 -28 45 -62.5t16 -76.5 q0 -39 -12.5 -71t-35 -55t-52.5 -35.5t-64 -12.5q-38 0 -67.5 12t-49.5 32t-31 47t-11 56q0 25 8.5 51t26 50t45 45t65.5 36q-38 16 -79.5 22.5t-70.5 6.5q-70 0 -123.5 -24.5t-89.5 -69.5t-54.5 -109t-18.5 -143q0 -51 12 -100.5t35 -91t58 -72t81 -45.5q43 11 77 15.5 t54 4.5q34 0 49 -11t15 -28q0 -8 -3 -15.5t-11 -13.5t-22.5 -10t-37.5 -4q-29 0 -57 2t-54 7q-66 -17 -121 -57t-94.5 -101t-61.5 -142t-22 -180q0 -114 31 -197t83 -137t118 -80t137 -26q100 0 175 36t128 95q-64 12 -117.5 42t-92.5 74.5t-61 101t-22 122.5q0 65 23 119.5 t62 94t90.5 61.5t107.5 22q52 0 100.5 -19t85.5 -55.5t59.5 -91t22.5 -125.5q0 -72 -31 -151t-88 -150q60 8 105 34t78.5 62t58 77.5t43.5 80.5l10 21l41 -31l-10 -21q-31 -62 -69 -113t-84 -87t-101 -55.5t-119 -20.5q-77 -78 -185 -126t-241 -48q-117 0 -213 39 t-164.5 106t-106.5 156t-38 190zM604 471q0 -60 19.5 -110.5t55 -89t85 -63t108.5 -32.5q46 66 68 141t22 144q0 62 -14.5 107t-38.5 74.5t-55 43.5t-64 14q-35 0 -68 -15.5t-59.5 -44.5t-42.5 -72t-16 -97zM608 1419q0 -40 28.5 -69t79.5 -29q54 0 83.5 34.5t29.5 88.5 q0 43 -21 74t-53 53q-39 -11 -67 -28t-45.5 -37.5t-26 -43t-8.5 -43.5z" />
<glyph unicode="F" horiz-adv-x="1190" d="M-81 1378q0 49 16.5 95t55 82t101.5 57.5t155 21.5q85 0 170.5 -13.5t169 -33t163 -42t152.5 -40.5q43 79 107 126.5t139 47.5q32 0 57 -10.5t42 -27.5t25.5 -39.5t8.5 -47.5q0 -42 -19.5 -72.5t-53.5 -51t-80 -30t-99 -9.5h-24.5t-24.5 2q-8 -50 -12.5 -111.5 t-4.5 -138.5v-324h134l-21 -61h-113v-246q0 -84 -2 -146.5t-11 -111t-27 -87t-50 -75.5q-55 -63 -153 -103t-238 -40q-86 0 -164 24t-137 67t-94 103t-35 133q0 54 17.5 97t45.5 76.5t61.5 57.5t65.5 40t58 25t39 12l20 -41q-23 -12 -51.5 -32.5t-53.5 -52t-42 -76.5 t-17 -106q0 -65 22 -116.5t61.5 -87t94 -54t119.5 -18.5q73 0 133.5 20t103.5 67t67 125t24 194v352h-194l20 61h174v185q0 120 7.5 218.5t33.5 182.5q-79 12 -162 28.5t-162.5 31.5t-151 25.5t-128.5 10.5q-77 0 -128 -12.5t-82 -33.5t-43.5 -48.5t-12.5 -58.5t14.5 -57 t41.5 -45.5t64.5 -30.5t83.5 -11q51 0 90.5 11.5t67.5 25.5q33 16 58 37l20 -43q-31 -23 -68 -41q-32 -16 -74.5 -28.5t-93.5 -12.5q-67 0 -118.5 18t-86.5 48.5t-53 71.5t-18 87zM1002 1481q31 -5 60 -8t55 -3q27 0 46.5 7.5t31.5 19.5t18 27t6 30q0 29 -20 49.5t-51 20.5 q-45 0 -83 -32.5t-63 -110.5z" />
<glyph unicode="G" horiz-adv-x="1137" d="M-31 328q0 112 25 230t69 234t105 227t133 209.5t153 181t165 142.5t168.5 93.5t164.5 33.5q84 0 134.5 -42.5t50.5 -120.5q0 -42 -17.5 -81.5t-47 -76t-66.5 -69t-75.5 -59.5t-76 -48t-66.5 -35l-30 41q38 19 83 54t84 79t65 95t26 102q0 43 -22.5 71.5t-71.5 28.5 q-76 0 -162.5 -47t-172 -131t-163.5 -200.5t-138 -255.5t-96 -295t-36 -320q0 -72 10.5 -129t30 -96.5t48 -61t64.5 -21.5q44 0 96 27t104.5 73t103.5 106.5t94 127.5t75 136t47 131q6 73 12 133.5t11.5 106.5t10.5 74.5t9 37.5q8 15 23 30t32.5 26.5t34.5 18.5t29 7 q16 0 21.5 -13t5.5 -28q0 -44 -15 -117t-38 -170q-10 -42 -14.5 -110.5t-6 -146t-1.5 -156t-1 -140.5q74 54 118.5 111.5t67.5 103.5l11 21l41 -31l-11 -21q-21 -41 -48.5 -77.5t-57.5 -67t-60 -56t-55 -44.5v-115q0 -131 -20.5 -233t-59 -173t-92 -108t-119.5 -37 q-36 0 -66 14.5t-51.5 39.5t-33.5 58.5t-12 71.5q0 73 24.5 134.5t66.5 116t97 104t117 98.5q1 55 3.5 109t5 102t5 87t4.5 64q-34 -69 -76.5 -135.5t-90.5 -126.5t-100.5 -110.5t-105.5 -87.5t-105.5 -57.5t-100.5 -20.5q-54 0 -102.5 21.5t-85 67.5t-58 118t-21.5 172z M584 -338q0 -62 20 -92.5t51 -30.5t56.5 26.5t44 87t29 158.5t10.5 240q-47 -37 -86 -78t-66.5 -88t-43 -102.5t-15.5 -120.5z" />
<glyph unicode="H" horiz-adv-x="1857" d="M-26 358q0 88 40 171.5t117.5 147.5t192 103t264.5 39h82v168q0 80 3.5 153.5t18.5 142.5t46 134t85 129q-55 -41 -119.5 -55t-131.5 -14q-46 0 -92.5 4.5t-91.5 9.5t-87.5 9.5t-81.5 4.5q-42 0 -73 -10.5t-51 -29t-30 -42.5t-10 -51t13 -52.5t38 -46t61.5 -32.5 t82.5 -12q42 0 76 8t58 18q28 11 50 27l21 -43q-27 -18 -60 -31q-28 -11 -65.5 -20.5t-79.5 -9.5q-58 0 -105 16.5t-80.5 45t-52 68t-18.5 85.5q0 54 20 95.5t54.5 70.5t81 44t100.5 15q55 0 109 -7t107.5 -15.5t106 -15.5t103.5 -7t100 9.5t99 35.5l41 -31q-23 -30 -40 -67 t-29 -90t-18 -126.5t-6 -177.5v-307h646v287q0 97 5 172.5t14.5 135t23.5 106t32.5 84.5t40.5 71t47 66l41 -31q-15 -31 -26.5 -67.5t-19 -94t-11.5 -144t-4 -216.5v-369h174l-31 -112h-71.5t-71.5 2v-750l-143 -20v774q-178 8 -343 19.5t-303 21.5v-224 q0 -135 -25.5 -234.5t-80.5 -165.5t-140 -98t-204 -32q-84 0 -157 25.5t-127 72.5t-84.5 113t-30.5 147zM107 358q0 -84 26 -142.5t67 -95t92 -53t101 -16.5q69 0 121 19t86.5 63t52 116t17.5 179v336q-31 2 -60.5 3t-52.5 1q-87 0 -154 -18.5t-117 -49.5t-84.5 -72 t-55.5 -86.5t-30 -93t-9 -90.5z" />
<glyph unicode="I" horiz-adv-x="1004" d="M-91 276q0 54 17.5 97t45.5 76.5t61.5 57.5t65.5 40t58 25t39 12l20 -41q-23 -12 -51.5 -32.5t-53.5 -52t-42 -76.5t-17 -106q0 -65 22 -116.5t61.5 -87t94 -54t119.5 -18.5q73 0 133.5 20t103.5 67t67 125t24 194q0 27 -1.5 52.5t-3.5 52.5t-5 57.5t-6 68.5 q-41 -16 -87 -24.5t-102 -8.5q-62 0 -119 19.5t-101 57.5t-70.5 95.5t-26.5 134.5q0 49 11.5 94.5t40.5 95.5t77.5 108.5t122.5 133.5t175.5 170t237.5 218l41 -31q-22 -30 -39 -66t-29 -83t-18 -108.5t-6 -142.5q0 -121 9 -245.5t20 -243.5q20 28 35.5 59t27.5 62l41 -21 q-20 -48 -43.5 -90t-54.5 -78q5 -51 10 -93.5t8.5 -79.5t6 -71t2.5 -69q0 -108 -19.5 -192t-75.5 -146q-55 -63 -156.5 -103t-240.5 -40q-86 0 -164 24t-137 67t-94 103t-35 133zM278 932q0 -146 65 -211.5t180 -65.5q38 0 71.5 7.5t62.5 21.5q-7 69 -14.5 138.5t-13.5 134 t-9.5 121.5t-3.5 100t4.5 94t12.5 99.5t19 90t25 64.5q-78 -75 -138 -135t-104.5 -110t-74.5 -92.5t-48 -83.5t-26 -83t-8 -90z" />
<glyph unicode="J" horiz-adv-x="1013" d="M-11 881q0 110 21.5 212t58.5 190.5t86.5 161.5t105 125t115 80.5t115.5 28.5q87 0 155.5 -52.5t116 -160t72 -271t24.5 -386.5q0 -26 -1 -51t-1 -51l33 41l41 -31l-78 -88q-32 -290 -91 -504t-135 -356t-162.5 -211.5t-174.5 -69.5q-36 0 -65 14.5t-50 39.5t-32 58.5 t-11 71.5q0 96 42 196.5t115.5 208.5t174.5 224t219 244q5 91 9 187t4 210q0 197 -14.5 329t-41.5 211.5t-65 112.5t-84 33q-61 0 -121.5 -54.5t-108.5 -158t-78 -254t-30 -342.5q0 -101 16 -171t43 -113.5t62 -63.5t73 -20q54 0 99 36.5t78 97.5t51 140t18 164 q0 24 -1.5 45t-3.5 37q-3 18 -5 33l51 10q2 -13 5 -31q2 -16 3.5 -38.5t1.5 -53.5q0 -92 -22 -180.5t-63 -157.5t-99.5 -111.5t-132.5 -42.5q-81 0 -143.5 33.5t-106 96t-66 152t-22.5 200.5zM235 -287q0 -72 24.5 -118t67.5 -46q23 0 54.5 14.5t65.5 52.5t69 103.5 t66 166.5t56 243t39 332q-105 -119 -187 -214.5t-139 -182.5t-86.5 -171.5t-29.5 -179.5z" />
<glyph unicode="K" horiz-adv-x="1438" d="M-221 276q0 54 17.5 97t45 76.5t61.5 57.5t65.5 40t58 25t39.5 12l20 -41q-23 -12 -51.5 -32.5t-53.5 -52t-42 -76.5t-17 -106q0 -65 22 -116.5t61.5 -87t94 -54t119.5 -18.5q73 0 133.5 20t103.5 67t67 125t24 194v391q-29 6 -48.5 15.5t-31 21t-16.5 23.5t-5 24 q0 11 5 23.5t16.5 23.5t31 21t48.5 16v82q0 80 3.5 152.5t18.5 141t46 133t85 128.5q-51 -32 -105 -44t-110 -12q-69 0 -140.5 9.5t-145.5 9.5q-42 0 -73 -11t-51.5 -29t-30 -42t-9.5 -51t13 -53t38 -46t61 -32.5t82 -12.5q42 0 76.5 8t58.5 18q28 11 50 27l20 -43 q-27 -18 -60 -31q-28 -11 -65.5 -20.5t-79.5 -9.5q-57 0 -104.5 16.5t-81 45t-52 68t-18.5 85.5q0 54 20 95.5t54.5 70.5t81 44t100.5 15q55 0 103 -6.5t91.5 -14t84 -14t80.5 -6.5t80 9t84 32l41 -30q-23 -30 -40 -67t-29 -90t-18 -127t-6 -177v-217q110 -9 187 -45 q52 36 78.5 85.5t39 105.5t16.5 116t10 117t20 108t46.5 89t89 60.5t148.5 22.5h103v-51h-74q-51 0 -84 -22t-54.5 -59t-34.5 -87t-24.5 -106.5t-24.5 -116t-35 -116t-56 -107.5t-86 -89q53 -42 90.5 -101.5t64.5 -129.5t47 -146.5t38.5 -152.5t38 -147t47 -130.5t65 -103 t90.5 -63.5q51 -20 110 -26.5t138 -6.5l4 -41q-13 -3 -30 -5q-14 -2 -35 -3.5t-48 -1.5q-144 0 -239.5 34t-156 92t-92 134t-48 160t-25 171.5t-22 167t-39 146t-76.5 110.5q-38 -15 -84.5 -26t-102.5 -14v-279q0 -84 -2.5 -146.5t-12 -111t-28.5 -87t-51 -75.5 q-55 -63 -156.5 -103t-240.5 -40q-86 0 -164 24t-137 67t-94 103t-35 133zM498 881q0 -13 10.5 -20.5t38.5 -10.5v57q-31 -3 -40 -10t-9 -16zM700 858q57 6 105 23q-47 18 -105 24v-47z" />
<glyph unicode="L" horiz-adv-x="818" d="M-161 102q0 23 14 45t40.5 39.5t63.5 28t83 10.5q51 0 98.5 -9t93.5 -23q37 58 60.5 143.5t23.5 206.5q0 132 -9.5 240.5t-21 204t-21 184t-9.5 180.5q0 81 29.5 142.5t76 102.5t105 61.5t116.5 20.5q65 0 119.5 -20t94 -54.5t61.5 -81t22 -100.5q0 -58 -19 -108.5 t-47.5 -92t-62.5 -73.5t-65 -53l-31 41q54 46 83.5 113.5t29.5 152.5q0 46 -11.5 87t-34 71.5t-55 48.5t-73.5 18q-35 0 -66.5 -15.5t-55.5 -46t-38.5 -77t-14.5 -107.5t9.5 -145.5t21.5 -188t21.5 -223.5t9.5 -252q0 -68 -11.5 -128.5t-32.5 -112.5t-49.5 -96t-62.5 -80 q56 -26 110.5 -57t107.5 -62.5t107 -61t109 -52t113 -36.5t121 -14q119 0 184 35l21 -27q-21 -18 -57.5 -38.5t-82 -38t-96.5 -29t-102 -11.5q-109 0 -201 30.5t-170 75.5t-145 97t-127 96q-59 -37 -118.5 -55t-109.5 -18q-42 0 -70.5 10.5t-46 26.5t-25 36t-7.5 39z M-104 102q0 -31 25 -46t67 -15q38 0 82 14.5t86 48.5q-42 26 -80.5 43t-76.5 17q-44 0 -73.5 -15.5t-29.5 -46.5z" />
<glyph unicode="M" horiz-adv-x="1684" d="M-261 184q0 59 19.5 113t54 101.5t81.5 88.5t101 76l30 -31q-38 -27 -70 -60.5t-55 -72t-36 -80t-13 -83.5q0 -39 12.5 -73t36 -60t56 -41t73.5 -15q42 0 87 17.5t87.5 58t81 107t67 164t45.5 228.5t17 302q0 49 -2.5 115t-7 138t-10.5 144.5t-12.5 135t-14 110 t-14.5 69.5l164 41q14 -38 34 -113.5t44 -174.5t50.5 -215t53 -236t52 -237t47.5 -217t39.5 -177.5t27.5 -118.5q22 56 51.5 138t64 179.5t72 207t76 221t77.5 220.5t75 206.5t68.5 179t58.5 137.5l82 -10q-18 -63 -36 -146.5t-34.5 -181t-31.5 -205t-26 -216.5t-17.5 -216 t-6.5 -204q0 -189 27 -287t84 -98q25 0 48.5 20t50 60t57 99.5t69.5 137.5l10 21l41 -31l-10 -21q-50 -100 -89.5 -174.5t-76 -124.5t-73 -75t-79.5 -25q-60 0 -100 29.5t-64.5 84t-35 132.5t-10.5 176q0 107 11 224.5t26.5 228.5t32 205.5t28.5 156.5l-451 -1288l-82 20 q0 21 -13 89.5t-34 166t-47.5 215t-54.5 236.5q-65 280 -148 622q3 -72 7 -145q3 -63 5.5 -134.5t2.5 -133.5q0 -181 -20.5 -321t-55.5 -243.5t-82 -174.5t-100 -114t-108.5 -62t-108.5 -19t-99.5 17.5t-81 49t-55 74t-20.5 92.5z" />
<glyph unicode="N" horiz-adv-x="1483" d="M-71 256q0 93 45 180t114 164l39 -20q-20 -30 -37.5 -64t-31 -69.5t-21.5 -72.5t-8 -73q0 -46 14.5 -83.5t38.5 -64t56.5 -41t68.5 -14.5q47 0 95.5 27.5t88 88t64.5 157t25 233.5q0 79 -9.5 153.5t-27.5 139.5q-109 155 -179.5 268t-111 193.5t-56.5 132.5t-16 86 q0 54 25.5 78t56.5 24q48 0 93.5 -45.5t86.5 -123t76 -180t64 -216.5q71 -92 151 -193t165.5 -205t174 -208.5t176.5 -204.5q-63 277 -95 498t-32 389q0 121 23.5 212.5t63.5 153t94 92.5t116 31q46 0 80.5 -16t58 -43t35 -62t11.5 -73q0 -51 -10.5 -95t-22.5 -77 q-15 -39 -33 -72l-39 25q4 9 11.5 26.5t14.5 43t12 58t5 70.5q0 62 -28 97.5t-74 35.5q-60 0 -101.5 -40.5t-67 -112t-37 -168t-11.5 -207.5q0 -104 9 -216.5t24.5 -225t36 -220.5t44.5 -202l144 -154l-121 -114q-59 57 -143.5 145t-182.5 199t-204.5 240t-209.5 267 q10 -57 13.5 -120.5t3.5 -139.5q0 -139 -33 -238.5t-85.5 -164t-117 -95t-127.5 -30.5q-49 0 -93.5 17t-78 50t-53.5 80.5t-20 108.5zM142 1608q0 -10 17.5 -41.5t50 -80t78.5 -112.5t103 -139q-25 79 -54.5 150.5t-59.5 125.5t-60 85.5t-55 31.5q-20 0 -20 -20z" />
<glyph unicode="O" horiz-adv-x="1432" d="M-11 809q0 113 20.5 210t54.5 179t77.5 149t90.5 120t93 92t85 65l43 -29q-69 -56 -124.5 -138t-95 -184t-60.5 -219.5t-21 -244.5q0 -215 42.5 -368t112.5 -251t160.5 -144t186.5 -46q104 0 193 46t154.5 144t103 251t37.5 368q0 206 -31.5 358t-86 251.5t-127.5 148.5 t-155 49q-64 0 -115 -29t-89.5 -79.5t-66.5 -118t-45.5 -144.5t-25.5 -158.5t-8 -160.5q0 -94 6 -158.5t14 -104.5q9 -47 21 -75l-59 -15q-14 16 -32.5 45t-35.5 76t-29 114t-12 159q0 73 13 154.5t40.5 160.5t69 151t98.5 126.5t129.5 87t161.5 32.5q91 0 166 -30.5 t134 -85t103.5 -129.5t73.5 -164t43.5 -188.5t14.5 -202.5q0 -114 -18.5 -227t-55 -216.5t-91.5 -192.5t-128 -154t-164.5 -102.5t-200.5 -37.5q-102 0 -191 31.5t-163 89t-132 137t-97.5 175t-60.5 204t-21 223.5z" />
<glyph unicode="P" horiz-adv-x="1218" d="M-11 543q0 153 29.5 297t84 270t131 230.5t171 179t204.5 116t230 41.5q103 0 188 -31t146 -86t94 -130t33 -162q0 -105 -29 -195.5t-80.5 -165.5t-122.5 -134t-154.5 -100t-176 -63.5t-187.5 -25.5q-3 -125 -6.5 -210.5t-11.5 -137.5q-11 -78 -32 -132.5t-51 -89 t-68.5 -50t-84.5 -15.5q-65 0 -121.5 38t-97.5 113t-64.5 186t-23.5 257zM102 440q0 -84 8.5 -163.5t28.5 -141t53.5 -98.5t83.5 -37q27 0 51 11t42 45.5t29 99t11 172.5q0 68 -1 134.5t-1 129.5q-15 2 -26 5t-19 5q-9 3 -15 6l11 47q5 -2 12 -4q6 -2 14.5 -4t20.5 -4 q-2 125 -4.5 229.5t-5.5 182.5q-4 91 -7 164q7 6 16 10q8 4 19 7t27 3q46 0 74 -16.5t28 -55.5v-296t-2 -236q131 0 237.5 50t181.5 133.5t116 192.5t41 228q0 76 -20.5 144.5t-62.5 120t-105.5 82t-149.5 30.5q-87 0 -171.5 -33t-161 -99t-141 -164t-112 -229t-74 -293.5 t-26.5 -357.5z" />
<glyph unicode="Q" horiz-adv-x="1403" d="M0 821q0 120 25 230.5t69 206t105 173t134 133t155 85.5t167 30q90 0 169 -26t145 -73t118 -113.5t88 -147.5t55 -174t19 -193q0 -138 -26 -270t-74 -248t-116 -211t-152 -160q54 -30 100 -46.5t84 -16.5q37 0 74.5 30t77 85.5t83 135t93.5 179.5l10 21l41 -31l-10 -21 q-58 -115 -109.5 -214t-101 -172t-98.5 -114.5t-101 -41.5q-35 0 -71 11t-73 28t-74 39t-73 45q-78 -31 -170 -31q-90 0 -137 34.5t-47 88.5t38 88.5t115 34.5q72 0 142.5 -28.5t136.5 -64.5q61 54 111.5 134t86.5 183.5t56 230t20 272.5q0 180 -31 313t-88 220.5t-136 130 t-175 42.5q-85 0 -154 -32.5t-123.5 -90t-94.5 -137t-66.5 -174t-39.5 -200.5t-13 -216q0 -128 15 -233t39 -185t55.5 -134.5t64.5 -82.5l-31 -41q-23 15 -54.5 43t-66 70.5t-67.5 100t-59.5 132t-43 167.5t-16.5 206zM451 51q0 -23 28 -37t74 -14q58 0 117 18 q-48 29 -90.5 48.5t-77.5 19.5q-23 0 -37 -9.5t-14 -25.5z" />
<glyph unicode="R" horiz-adv-x="1300" d="M-21 594q0 153 33 293.5t93.5 261t146.5 218.5t191.5 167.5t229 107t258.5 37.5q104 0 182.5 -27t131.5 -74.5t79.5 -111t26.5 -135.5q0 -79 -26.5 -151.5t-73 -137.5t-109.5 -122t-135 -104t-149.5 -84t-153.5 -62q54 -48 98 -111.5t84 -135t79 -146.5t82 -145.5 t93.5 -133.5t115 -110.5t144.5 -75t183 -27.5l4 -41q-13 -3 -30 -5q-14 -2 -35 -3.5t-48 -1.5q-130 0 -227 29.5t-168.5 80t-121.5 117t-87.5 141t-65.5 152t-55.5 150t-58 135t-72.5 106.5q-20 -5 -39.5 -8t-38.5 -6q-1 -72 -2.5 -124.5t-3.5 -92t-5 -69.5t-7 -58 q-11 -78 -32 -132.5t-51 -89t-68.5 -50t-84.5 -15.5q-65 0 -121.5 38t-97.5 113t-64.5 186t-23.5 257zM92 492q0 -85 8.5 -164.5t28.5 -141t53.5 -98.5t83.5 -37q27 0 51 11t42 45.5t29 99t11 172.5v69.5v59t-0.5 57.5t-1.5 64q-38 9 -59 29t-21 49q0 26 20.5 44.5 t55.5 24.5q-2 98 -5 179t-5 140q-3 69 -5 124q7 6 16 10q8 4 19 7t27 3q46 0 74 -16.5t28 -55.5v-218.5t-2 -188.5q32 -9 61.5 -22.5t55.5 -30.5q92 25 185 72t167.5 119.5t121 172t46.5 229.5q0 85 -23.5 145t-63.5 98.5t-94.5 56.5t-115.5 18q-102 0 -200.5 -29.5 t-186 -89.5t-161 -152t-127 -217t-83.5 -284t-30 -354zM368 707q0 -10 3.5 -17t23.5 -12v47q-27 -6 -27 -18zM540 682q8 0 15.5 1t15.5 3q-8 5 -15.5 9t-15.5 7v-20z" />
<glyph unicode="S" horiz-adv-x="1096" d="M0 1145q0 118 49 216.5t132 169t192.5 109.5t230.5 39q103 0 176 -24t119.5 -63t68 -89t21.5 -102q0 -62 -21.5 -113t-52 -90.5t-65.5 -66t-62 -37.5l-30 41q23 17 41.5 41t31.5 52t20 59t7 63q0 48 -16.5 95.5t-53 86t-94.5 62.5t-141 24q-92 0 -174 -30t-143.5 -81 t-97.5 -118t-36 -140q0 -77 36.5 -136.5t96 -108t135.5 -89.5t155 -81t155 -83.5t135.5 -97.5t96 -121t36.5 -155q0 -84 -40 -161t-110 -136.5t-164.5 -95t-203.5 -35.5q-122 0 -201.5 26.5t-126 66.5t-64.5 86.5t-18 86.5q0 49 15.5 88.5t41.5 71t58.5 55t67 40t67 27 t58.5 15.5l10 -51q-12 -4 -43.5 -19.5t-65.5 -45t-60 -73.5t-26 -104q0 -41 17.5 -80t52.5 -70t86 -50t119 -19q82 0 143.5 15.5t106 40.5t73 57.5t45 67.5t23 69.5t6.5 62.5q0 76 -35 133.5t-92.5 103t-130.5 83t-149.5 74.5t-149.5 77t-130.5 91t-92.5 116.5t-35 153.5z " />
<glyph unicode="T" horiz-adv-x="1189" d="M-131 1378q0 49 16.5 95t55 82t101.5 57.5t155 21.5q85 0 170.5 -13.5t169 -33t163 -42t152.5 -40.5q43 79 107 126.5t139 47.5q32 0 57 -10.5t42 -27.5t25.5 -39.5t8.5 -47.5q0 -42 -19.5 -72.5t-53.5 -51t-80 -30t-99 -9.5h-24.5t-24.5 2q-9 -34 -15 -88t-6 -117 q0 -102 11 -198.5t24.5 -192.5t25 -195t11.5 -207q0 -101 -27 -183.5t-86 -141t-151.5 -90t-222.5 -31.5q-86 0 -164 24t-137 67t-94 103t-35 133q0 54 17.5 97t45 76.5t61 57.5t65.5 40t58 25t39 12l21 -41q-23 -12 -51.5 -32.5t-53.5 -52t-42 -76.5t-17 -106 q0 -65 22 -116.5t61.5 -87t94 -54t119.5 -18.5q67 0 127.5 16.5t106.5 55.5t73 103t27 159t-10.5 190.5t-22.5 192t-22.5 194t-10.5 197.5q0 87 9.5 159.5t29.5 137.5q-79 12 -162 28.5t-162.5 31.5t-151 25.5t-128.5 10.5q-77 0 -128 -12.5t-82 -33.5t-43.5 -48.5 t-12.5 -58.5t14.5 -57t41.5 -45.5t64.5 -30.5t83.5 -11q51 0 90.5 11.5t67.5 25.5q33 16 58 37l20 -43q-31 -23 -68 -41q-32 -16 -74.5 -28.5t-93.5 -12.5q-67 0 -118.5 18t-86.5 48.5t-53 71.5t-18 87zM952 1481q31 -5 60 -8t55 -3q27 0 46.5 7.5t31.5 19.5t18 27t6 30 q0 29 -20 49.5t-51 20.5q-45 0 -83 -32.5t-63 -110.5z" />
<glyph unicode="U" horiz-adv-x="1551" d="M-221 911q0 90 30.5 182t82.5 177.5t122 160t148.5 129.5t161.5 87t162 32q48 0 87.5 -15.5t68 -46t44 -76.5t15.5 -107q0 -74 -21.5 -167t-53 -195.5t-69 -211t-69 -215t-53 -206t-21.5 -183.5q0 -82 21.5 -132.5t52.5 -78t66.5 -36.5t64.5 -9q59 0 114 28t106 78 t96.5 119t86.5 150v47q0 125 9.5 266.5t27.5 281.5t44 268t58.5 226t71.5 156.5t82 58.5q31 0 46 -32t15 -101q0 -71 -12.5 -180t-37.5 -239.5t-63 -276t-89 -289.5v-63q0 -189 29.5 -287t101.5 -98q28 0 53 18t51 56t57.5 98.5t73.5 144.5l11 21l40 -31l-10 -21 q-50 -100 -89 -174.5t-76.5 -124.5t-78.5 -75t-94 -25q-100 0 -151.5 74.5t-65.5 214.5q-41 -75 -87.5 -137.5t-99 -107.5t-110 -70t-121.5 -25q-65 0 -126 23t-108 70.5t-75 121t-28 174.5q0 110 22.5 217t57 209.5t74 199.5t74 186.5t57 171t22.5 153.5q0 43 -9 72.5 t-25.5 47.5t-39 25.5t-49.5 7.5q-74 0 -144.5 -34t-133 -91t-115 -131t-90.5 -155t-59 -162.5t-21 -153.5q0 -77 29 -115t83 -38q39 0 79 23.5t77.5 65.5t71 100t59.5 128l41 -21q-19 -46 -51.5 -106t-77.5 -114t-102.5 -91t-126.5 -37q-42 0 -78 13.5t-62 40.5t-40.5 67 t-14.5 94zM1178 723q33 113 58 224.5t42.5 212t26 184t8.5 139.5q0 49 -7.5 76.5t-21.5 27.5t-26 -39.5t-22.5 -106t-19.5 -154t-16.5 -183.5t-12.5 -194.5t-9 -186.5z" />
<glyph unicode="V" horiz-adv-x="1361" d="M-200 1106q0 72 20.5 142t56 134t84 118t105.5 94t120 62.5t126 22.5q268 0 268 -389q0 -95 -8.5 -202t-18 -218.5t-18 -223t-8.5 -214.5q0 -134 12 -217t35 -128.5t56 -61t75 -15.5q63 0 124 46.5t116 126t101.5 186t80.5 227t53 249t19 251.5q0 139 -15 231.5t-41 148 t-60 78.5t-73 23q-27 0 -51.5 -9.5t-45.5 -23.5t-38 -30t-28 -29l-41 31q14 18 41.5 44t64 50t80 41.5t90.5 17.5q61 0 104 -31.5t71 -90t41 -142t13 -186.5q0 -96 -11 -201t-32.5 -212.5t-53 -212.5t-71.5 -200t-89 -176.5t-106 -141t-121.5 -93t-135.5 -33.5 q-75 0 -129.5 26.5t-92 72t-60.5 105t-35.5 125.5t-16.5 134.5t-4 130.5q0 119 10 231.5t22.5 217.5t22.5 201t10 183q0 73 -8 121.5t-24.5 77.5t-41.5 41t-59 12q-44 0 -87 -20t-82.5 -55.5t-72.5 -84t-57.5 -105.5t-38.5 -119.5t-14 -125.5q0 -65 9 -109t24.5 -71t38 -39 t49.5 -12q47 0 85 25.5t66 72t46 112t26 144.5l47 -2q-3 -34 -10.5 -77.5t-21.5 -88t-35 -87.5t-52 -76t-72 -53.5t-95 -20.5q-39 0 -81 15t-77 47t-57.5 83.5t-22.5 124.5z" />
<glyph unicode="W" horiz-adv-x="1927" d="M-211 948q0 87 26.5 175t72.5 169t108 152t133 123t147.5 82t151.5 30q62 0 112 -16t84.5 -50t53 -86t18.5 -124q0 -71 -15.5 -154t-39 -173.5t-51 -186t-51 -192t-39 -191t-15.5 -182.5q0 -68 11 -116t32 -78t52 -44t71 -14q37 0 75.5 21.5t75 59t69.5 88.5t60.5 109.5 t47 122t29.5 127.5q2 93 9.5 184.5t16.5 166.5q11 87 23 167l159 43q-12 -88 -22 -199q-8 -95 -14.5 -225t-6.5 -286q0 -126 16.5 -210.5t45 -136t66 -73t79.5 -21.5q54 0 100.5 33t84 92t66.5 139.5t49 175.5t30 200t10 212q0 140 -11.5 247.5t-31 186.5t-45.5 132 t-54.5 85.5t-58.5 46t-57 13.5q-29 0 -53 -10.5t-43.5 -26.5t-35 -33.5t-25.5 -32.5l-46 27q12 19 36.5 48.5t59 57t78 47t93.5 19.5q73 0 129.5 -49t95 -139t58.5 -216t20 -280q0 -128 -12.5 -254.5t-37.5 -241.5t-63 -214t-89 -171.5t-115 -113.5t-142 -41 q-69 0 -127.5 28t-103.5 83.5t-76 138t-45 190.5q-29 -76 -71 -146.5t-94 -124.5t-112 -86t-125 -32q-60 0 -116 19.5t-99.5 66.5t-69.5 125.5t-26 196.5q0 91 17 184.5t43 186.5t56 184t56 177t43 165t17 149q0 91 -36.5 132.5t-99.5 41.5q-70 0 -133.5 -31.5t-118 -84.5 t-99 -122.5t-75.5 -146.5t-48 -156t-17 -151q0 -199 119 -199q38 0 76 23.5t72 65.5t62 100.5t48 128.5l43 -21q-10 -31 -25.5 -68.5t-36.5 -76.5t-48 -75.5t-60 -65t-72.5 -45.5t-85.5 -17q-97 0 -155 65.5t-58 196.5z" />
<glyph unicode="X" horiz-adv-x="1444" d="M-8 14l41 158q60 -31 112 -31q46 0 90.5 27.5t87.5 73.5t83 107t76.5 127t69 134t60.5 129q-82 183 -141 315.5t-100.5 225.5t-69.5 150t-48.5 89t-36.5 43t-34 11q-24 0 -45.5 -19.5t-39.5 -47t-31.5 -57t-20.5 -48.5l-45 20q14 42 34.5 86t49.5 79.5t66.5 58t85.5 22.5 q33 0 60 -11.5t54 -42t57.5 -84t71.5 -136.5t95 -200t128 -275q72 175 128.5 306t114.5 218t124 130.5t156 43.5l78 -4l-19 -142q-14 2 -29 5q-13 2 -28 4t-29 2q-44 0 -78.5 -10.5t-66.5 -37.5t-63 -73.5t-67 -119.5t-79 -175t-99 -240q41 -90 83.5 -177.5t84.5 -166.5 t82.5 -146.5t78 -116.5t71.5 -77t63 -28q34 0 65 31.5t58.5 78.5t53 103t49.5 104l10 21l41 -31l-10 -21q-42 -85 -77.5 -158t-72.5 -126.5t-79 -84t-99 -30.5q-68 0 -129 54.5t-119 145t-116 207t-121 240.5q-59 -125 -125 -243.5t-137.5 -211.5t-145.5 -149.5t-148 -56.5 q-27 0 -48 4.5t-36 9.5q-18 6 -30 14z" />
<glyph unicode="Y" horiz-adv-x="1479" d="M-190 901q0 90 30.5 183t82.5 179.5t122 162t148.5 132t161.5 89t162 32.5q48 0 87.5 -15.5t68 -46t44 -76.5t15.5 -107q0 -74 -21.5 -167.5t-53 -197.5t-69 -214t-69 -217t-53 -207.5t-21.5 -184.5q0 -82 21.5 -131t52.5 -74.5t66.5 -33t64.5 -7.5q67 0 128 33.5 t116.5 93.5t105 141.5t92.5 177.5q4 158 9.5 311t14.5 290t24 253t40 200t60.5 131.5t85.5 47.5q30 0 55.5 -32t25.5 -101q0 -64 -9.5 -158t-29 -208t-49 -241t-69.5 -257v-55q0 -136 -2.5 -277.5t-10 -283t-20.5 -279.5t-35 -268l-153 -21q29 183 41 396.5t20 443.5 q-44 -87 -94 -158.5t-106 -123t-119 -79.5t-132 -28q-65 0 -126 21t-108 67t-75 117.5t-28 173.5q0 110 22.5 218t57 211.5t74 201.5t74 189t57 173t22.5 154q0 43 -9 72.5t-25.5 47.5t-39 25.5t-49.5 7.5q-74 0 -144.5 -34.5t-133 -92.5t-115 -133.5t-90.5 -157.5 t-59 -164.5t-21 -154.5q0 -78 29 -116t83 -38q39 0 79 23.5t77.5 65.5t71 100.5t59.5 128.5l41 -21q-13 -31 -31.5 -68.5t-43 -76.5t-54.5 -75.5t-65.5 -65t-76.5 -45.5t-87 -17q-42 0 -78 13.5t-62 40.5t-40.5 67t-14.5 94zM1248 862q23 94 41 185.5t30 172.5t18.5 148.5 t6.5 114.5q0 49 -7.5 76.5t-21.5 27.5q-22 0 -35.5 -36.5t-20.5 -103t-9 -159.5t-2 -205v-221z" />
<glyph unicode="Z" horiz-adv-x="1332" d="M-61 102q0 31 16.5 64t49 60t80.5 44t110 17q40 0 82 -5.5t82 -15.5q72 99 140 225.5t136 266.5h-168l19 61h178q27 57 57 127.5t64 145t72 149.5t81 141q-72 19 -147.5 43.5t-153.5 47t-157 38t-158 15.5q-59 0 -96 -12.5t-59 -32.5t-30 -46t-8 -53q0 -28 10.5 -52.5 t32 -42.5t54.5 -28t78 -10t79.5 11.5t59.5 25.5q29 16 51 37l18 -43q-27 -23 -60 -41q-28 -16 -65.5 -28.5t-82.5 -12.5q-58 0 -102.5 16.5t-74.5 45t-45.5 65.5t-15.5 78q0 54 19 103.5t59 88t101 61.5t145 23q92 0 178.5 -19.5t167.5 -47t155 -57.5t140 -52 q46 48 95.5 76.5t106.5 28.5q54 0 81.5 -24.5t27.5 -67.5q0 -29 -9.5 -58t-32.5 -52.5t-62 -38.5t-97 -15q-35 0 -71 4t-74 12q-41 -62 -78 -134.5t-70 -146t-62 -143.5t-54 -125h182l-19 -61h-192q-68 -141 -135.5 -272t-145.5 -236q70 -20 135.5 -45.5t130 -48.5 t129.5 -38.5t134 -15.5q65 0 114.5 18.5t91.5 58t81 102t83 149.5l11 21l41 -31l-11 -21q-47 -93 -92 -175t-99 -143t-122.5 -96.5t-161.5 -35.5q-75 0 -149.5 18t-147 45t-142.5 57t-136 54q-59 -59 -124.5 -91t-137.5 -32q-50 0 -80.5 26.5t-30.5 75.5zM-16 98 q0 -20 19.5 -33.5t54.5 -13.5q51 0 98.5 23.5t93.5 66.5q-72 23 -147 23q-34 0 -56.5 -5.5t-36.5 -14.5t-20 -21t-6 -25zM1090 1487q52 -12 96 -12q56 0 79.5 16t23.5 33q0 14 -15 23t-41 9q-37 0 -73 -18.5t-70 -50.5z" />
<glyph unicode="[" horiz-adv-x="512" d="M143 -51v1792h226v-51h-82v-1690h82v-51h-226z" />
<glyph unicode="\" horiz-adv-x="737" d="M96 1569l72 18l463 -1722l-72 -19z" />
<glyph unicode="]" horiz-adv-x="512" d="M143 0h82v1690h-82v51h226v-1792h-226v51z" />
<glyph unicode="^" horiz-adv-x="901" d="M123 676l328 543l327 -543l-41 -31l-286 410l-287 -410z" />
<glyph unicode="_" horiz-adv-x="850" d="M123 0v82h604v-82h-604z" />
<glyph unicode="`" horiz-adv-x="246" d="M0 1116l133 62l113 -256l-41 -31z" />
<glyph unicode="a" horiz-adv-x="874" d="M-25 348q0 104 27 190.5t73 149t106 97t126 34.5q40 0 74 -18t59.5 -43.5t42.5 -54t23 -48.5l12 97q2 19 18.5 32t36.5 20.5t39 11t27 3.5q12 0 16 -4t4 -16q0 -15 -8.5 -60.5t-18 -116t-18 -165.5t-8.5 -209q0 -57 10 -96t35 -39q15 0 32.5 14.5t40.5 47.5t52.5 85.5 t67.5 128.5l30 62l41 -31l-30 -62q-42 -84 -78.5 -150.5t-69.5 -112.5t-64.5 -70.5t-62.5 -24.5q-33 0 -55.5 18t-37.5 49.5t-23 73t-11 88.5q-24 -48 -53 -89.5t-60.5 -72.5t-65.5 -49t-68 -18q-50 0 -97 21t-83.5 64t-58.5 108.5t-22 154.5zM117 420q0 -150 47 -228.5 t125 -78.5q34 0 70.5 27.5t67 79t50 125.5t19.5 167q0 46 -14 90.5t-38 79t-55.5 55.5t-66.5 21q-43 0 -80.5 -24.5t-65 -69t-43.5 -107t-16 -137.5z" />
<glyph unicode="b" horiz-adv-x="797" d="M-20 614q0 238 22 405.5t58 273t83 154t97 48.5q31 0 51 -24.5t20 -88.5q0 -50 -8 -114t-21 -137t-31 -151.5t-38 -156t-41 -152t-41 -139.5q1 -115 15 -204.5t39 -151t61 -93.5t82 -32q63 0 104.5 50.5t61.5 138.5q-52 11 -99 41t-83 74.5t-57.5 102.5t-21.5 126 q0 56 14.5 98.5t38.5 71t55.5 43t66.5 14.5q41 0 84 -23.5t78 -70t57 -116.5t22 -163q0 -35 -4 -69t-12 -66q48 14 87.5 45t65.5 82l11 21l41 -31l-11 -21q-34 -68 -90.5 -108.5t-122.5 -52.5q-18 -51 -46.5 -94.5t-65 -75.5t-82 -50t-98.5 -18q-75 0 -137.5 32t-108 104 t-71 189.5t-25.5 288.5zM131 698q24 88 45 180.5t36.5 179.5t24.5 164.5t9 135.5q0 21 -5 33t-16 12t-22 -31t-21.5 -84t-19 -123t-15.5 -148.5t-11 -160.5t-5 -158zM299 592q0 -59 16.5 -108.5t44.5 -87t65 -62.5t79 -35q5 28 6.5 58.5t1.5 62.5q0 71 -11 128.5t-29 98 t-42 62.5t-49 22q-34 0 -58 -36.5t-24 -102.5z" />
<glyph unicode="c" horiz-adv-x="639" d="M-14 338q0 108 29.5 196.5t76.5 151.5t106 98t119 35q46 0 77 -13t50 -33t27 -43t8 -44t-9 -43.5t-26.5 -42t-41.5 -35t-54 -22.5l-10 28q12 19 20.5 47t8.5 56q0 34 -17 59t-61 25q-29 0 -59 -21t-55.5 -63t-41.5 -106t-16 -150q0 -68 14 -124t41 -96t65.5 -62.5 t86.5 -22.5q35 0 71.5 18t74 56t77.5 98.5t82 144.5l10 21l41 -31l-10 -21q-54 -107 -107.5 -183t-105.5 -124t-101.5 -70t-95.5 -22q-65 0 -116 27t-86 73.5t-53.5 108t-18.5 129.5z" />
<glyph unicode="d" horiz-adv-x="963" d="M-33 322q0 57 11 116t31.5 114.5t51.5 104t71 84.5t89.5 57t106.5 21q65 0 110.5 -29t73.5 -71q1 189 19 334t50.5 243t77.5 148.5t99 50.5q19 0 34.5 -4.5t26 -16.5t16 -32.5t5.5 -52.5q0 -66 -13 -151.5t-37 -186t-58.5 -214t-76.5 -235.5q1 -107 3 -185t5.5 -132 t9 -88t13 -52.5t18 -25t23.5 -6.5q23 0 46.5 20.5t50.5 61t58.5 99.5t69.5 136l11 21l41 -31l-11 -21q-58 -117 -102 -193.5t-80.5 -122.5t-69.5 -64.5t-69 -18.5q-35 0 -60.5 17.5t-43.5 55t-29 96t-17 140.5q-35 -70 -72 -127t-76.5 -97.5t-82.5 -62.5t-88 -22 q-61 0 -105.5 26t-73.5 70.5t-43 102.5t-14 123zM131 393q0 -55 8.5 -105.5t26 -89.5t42.5 -62t58 -23q32 0 62.5 16t60.5 51.5t61 92t66 137.5q-2 48 -3 102.5t-1 116.5q-22 65 -66.5 102t-97.5 37q-55 0 -96 -33.5t-68 -87t-40 -120.5t-13 -134zM655 750q31 101 53 182 t35 151t19 135t6 134q0 46 -10.5 64t-24.5 18q-24 0 -39 -46.5t-23.5 -125.5t-12 -183t-3.5 -219v-110z" />
<glyph unicode="e" horiz-adv-x="610" d="M-43 338q0 108 29.5 196.5t79 151.5t112.5 98t131 35q69 0 105.5 -35t36.5 -88q0 -51 -29 -95.5t-78.5 -87t-114.5 -84t-137 -85.5q7 -52 24 -94.5t43 -73t60 -47t76 -16.5q35 0 71.5 18t74 56t77.5 98.5t82 144.5l10 21l41 -31l-10 -21q-54 -107 -107.5 -183t-105 -124 t-101.5 -70t-96 -22q-65 0 -116 27t-86 73.5t-53.5 108t-18.5 129.5zM88 395q34 18 75.5 47.5t77.5 65.5t60.5 76.5t24.5 81.5q0 40 -21.5 63t-52.5 23q-26 0 -55 -18.5t-53 -59t-40 -103.5t-16 -153v-23z" />
<glyph unicode="f" horiz-adv-x="428" d="M-2 707q0 192 21 339t56.5 247t81.5 151t97 51q19 0 36 -6.5t29.5 -20.5t19.5 -38t7 -58q0 -86 -20 -189.5t-50.5 -209.5t-66.5 -207.5t-68 -183.5v-224q9 -12 21.5 -21t27 -14.5t29.5 -8.5t27 -3q52 0 96 27t76 92l10 21l41 -31l-10 -21q-37 -74 -97.5 -117.5 t-132.5 -43.5q-21 0 -43.5 4.5t-44.5 13.5v-758l-102 -10q-12 169 -21 365q-4 84 -7.5 182t-6.5 206.5t-4.5 226t-1.5 239.5zM141 711q25 71 47 148t39 155.5t27 156.5t10 150q0 46 -9 74t-34 28q-22 0 -37.5 -45t-25 -121.5t-13.5 -179t-4 -217.5v-149z" />
<glyph unicode="g" horiz-adv-x="850" d="M-6 377q0 81 19 160t57 141.5t94 101.5t131 39q59 0 110.5 -24t86.5 -70v12q0 19 11.5 34.5t29 26t37 16t34.5 5.5q17 0 24 -4.5t7 -15.5q0 -16 -4 -72t-4 -164v-434q25 31 53 69t56 79.5t54.5 85.5t49.5 88l10 20l41 -31l-10 -20q-24 -48 -55.5 -99.5t-66 -101t-69 -95 t-63.5 -81.5v-217q0 -92 -16.5 -156.5t-45 -105t-68 -58.5t-85.5 -18q-57 0 -95 35.5t-38 97.5q0 44 16.5 89t45.5 92t67.5 97.5t83.5 104.5v189q-24 -47 -54 -83t-63.5 -60.5t-69 -37t-69.5 -12.5q-47 0 -90.5 23t-77.5 69.5t-54 117.5t-20 167zM137 440q0 -77 9.5 -139 t29.5 -106.5t50 -68.5t71 -24q31 0 61.5 18t56.5 46t46.5 61.5t30.5 65.5v282q0 45 -14 81.5t-37 62t-52.5 39.5t-60.5 14q-48 0 -84 -28.5t-60 -75t-35.5 -106.5t-11.5 -122zM336 -373q0 -31 17 -54.5t48 -23.5q16 0 32.5 6.5t29.5 29.5t21 68t8 122v149 q-69 -83 -112.5 -157.5t-43.5 -139.5z" />
<glyph unicode="h" horiz-adv-x="786" d="M-43 1126q0 63 13.5 110t35.5 78t49 46.5t54 15.5q38 0 60.5 -27t33.5 -73t11 -107v-9q0 -57 -5 -120q-6 -68 -17 -139t-24 -138t-25.5 -125t-21.5 -99q0 -8 1 -16.5t1 -16.5q21 47 51.5 101.5t69 101.5t84 78.5t96.5 31.5q75 0 113 -50t38 -144q0 -65 -7 -125 t-15.5 -115.5t-15.5 -107.5t-7 -103q0 -61 31 -61q15 0 38.5 26.5t52.5 70.5t61 101t63 119l10 21l41 -31l-10 -21q-35 -69 -73 -140t-78 -128.5t-81.5 -94t-82.5 -36.5q-18 0 -36.5 6t-33.5 21t-25 40.5t-10 65.5t4 87t9.5 96.5t12.5 98.5t12.5 92t9.5 77.5t4 56.5 q0 57 -16 83t-48 26q-40 0 -77 -35t-69.5 -87.5t-59.5 -113t-48 -111.5q0 -15 1 -29.5t1 -25.5q0 -49 -3 -103.5t-12.5 -109t-27.5 -106t-49 -95.5l-76 23q25 84 30 176t5 184q0 100 -6.5 200t-15 200.5t-15 202.5t-6.5 206zM68 1204q0 -41 3.5 -99.5t9 -126.5t12 -142 t13.5 -146q11 56 22 123.5t19.5 136t12.5 133.5q3 42 3 77q-1 20 -1 38q-2 50 -13 80.5t-32 30.5q-19 0 -34 -23t-15 -82z" />
<glyph unicode="i" horiz-adv-x="494" d="M-10 430l10 21q25 51 41.5 102.5t27 96.5t17.5 79t14 49q6 12 17.5 19.5t24 12.5t24 7t16.5 2q22 0 29.5 -9t7.5 -32q0 -11 -4.5 -54.5t-10 -109t-10 -147t-4.5 -168.5q0 -63 6 -99.5t15.5 -54.5t21 -23t23.5 -5q16 0 36 14t47 49.5t62 96t82 153.5l11 21l41 -31l-11 -21 q-38 -74 -75.5 -146t-76 -128t-77.5 -90.5t-78 -34.5q-41 0 -70.5 16.5t-49 54.5t-29 100.5t-9.5 154.5v54.5t2 59.5h-10l-10 -20l-10 -21zM92 1024q0 34 24 58t58 24q35 0 58.5 -24t23.5 -58q0 -35 -23.5 -58.5t-58.5 -23.5q-34 0 -58 23.5t-24 58.5z" />
<glyph unicode="j" horiz-adv-x="399" d="M-154 -379q0 45 16.5 90t46 93t68.5 98.5t84 105.5v432h-10l-20 -41l-41 31l10 21q25 51 35.5 102.5t14 96.5t4 79t7.5 49q6 12 20.5 19.5t31 12.5t31.5 7t20 2q22 0 26.5 -9t4.5 -32v-647q51 66 102.5 142.5t91.5 156.5l10 21l41 -31l-10 -21q-20 -40 -47.5 -84 t-58.5 -89.5t-64.5 -90.5t-64.5 -86v-223q0 -92 -16.5 -156.5t-45.5 -105t-68 -58.5t-85 -18q-29 0 -53.5 9t-42.5 26.5t-28 42t-10 55.5zM-96 -373q0 -31 17 -54.5t48 -23.5q16 0 32.5 6.5t29.5 29.5t21.5 68t8.5 122v151q-34 -42 -62.5 -81.5t-49.5 -77t-33 -72.5t-12 -68 zM51 1024q0 34 24 58t58 24q35 0 58.5 -24t23.5 -58q0 -35 -23.5 -58.5t-58.5 -23.5q-34 0 -58 23.5t-24 58.5z" />
<glyph unicode="k" horiz-adv-x="805" d="M-25 72q0 64 21 159v517q0 192 20 332.5t54 233t79.5 137t96.5 44.5q55 0 78.5 -35.5t23.5 -97.5q0 -54 -16 -138.5t-44.5 -185.5t-66.5 -210.5t-82 -213.5v-22q28 45 65.5 86t80.5 72.5t88.5 50t89.5 18.5q39 0 71.5 -11t56.5 -32t37 -52.5t13 -72.5q0 -42 -18.5 -84 t-58 -81t-101.5 -73.5t-150 -60.5l20 -30t33.5 -47.5t42.5 -55t47.5 -52t48.5 -39t44 -15.5q27 0 55 22.5t58.5 64t63.5 100t69 130.5l10 21l41 -31l-10 -21q-42 -84 -80 -157t-76 -127t-77.5 -84.5t-84.5 -30.5t-88 24t-85.5 67t-85 100.5t-87.5 125.5l-35 -6 q-2 -88 -6 -158.5t-10 -115.5q-3 -20 -16.5 -28.5t-36.5 -8.5q-27 0 -45 7t-28.5 17.5t-15 23t-4.5 24.5zM135 737q42 111 68 208.5t40.5 176t19.5 137t5 93.5q0 53 -9.5 72.5t-31.5 19.5q-21 0 -36.5 -41t-26.5 -127.5t-18 -220t-11 -318.5zM137 360q102 15 172.5 40 t114.5 58t64 72.5t20 83.5q0 23 -7.5 44.5t-21.5 38t-34.5 26.5t-45.5 10q-35 0 -70.5 -18.5t-70 -49.5t-65 -72.5t-54.5 -86.5q0 -23 -0.5 -40.5t-0.5 -34t-0.5 -33.5t-0.5 -38z" />
<glyph unicode="l" horiz-adv-x="436" d="M-14 594q0 238 20 408.5t54.5 280t80 161t95.5 51.5q30 0 50.5 -24.5t20.5 -88.5q0 -50 -8 -114t-21 -137t-31 -151.5t-38 -156t-41 -152t-41 -139.5q6 -123 13.5 -201.5t18 -123.5t24.5 -62.5t32 -17.5t41.5 23.5t50.5 64.5t57 96t62 119l10 21l41 -31l-10 -21 q-53 -106 -94.5 -181.5t-77.5 -124t-68.5 -71t-66.5 -22.5q-45 0 -77.5 29.5t-54 99t-32 183.5t-10.5 282zM127 698q24 88 44.5 180.5t36.5 179.5t25 164.5t9 135.5q0 21 -5 33t-16 12t-22 -31t-21.5 -84t-19 -123t-15.5 -148.5t-11 -160.5t-5 -158z" />
<glyph unicode="m" horiz-adv-x="1167" d="M-33 49q0 15 3 37.5t7.5 48.5t10 53.5t10.5 51.5q0 85 -0.5 153t-0.5 121t-0.5 93t-0.5 69q0 48 1.5 70.5t4.5 31.5q5 14 18.5 22t28.5 12.5t30 5.5t23 1q19 0 25 -11t6 -34v-94t-2 -84q19 45 44.5 85.5t56.5 71t65.5 48.5t71.5 18q45 0 74.5 -18.5t47 -51.5t26 -77.5 t11.5 -96.5q28 51 60.5 95.5t69 77.5t77 52t84.5 19q76 0 111 -47.5t35 -128.5q0 -51 -8 -114t-17 -127.5t-17 -126.5t-8 -113q0 -62 31 -62q16 0 35 19.5t43.5 60t57 102.5t75.5 148l10 21l41 -31l-10 -21q-59 -118 -100.5 -195t-74.5 -122.5t-62.5 -63.5t-65.5 -18 q-21 0 -41 6t-35 21t-24 40.5t-9 65.5q0 60 8 135t18 150t18 141.5t8 108.5q0 37 -16 59.5t-48 22.5t-66.5 -25t-67 -64.5t-61 -88.5t-49.5 -97q0 -105 -2 -183.5t-5.5 -132.5t-9.5 -85.5t-13 -42.5q-5 -7 -17 -13t-26.5 -10t-28 -6t-20.5 -2q-16 0 -27.5 9.5t-11.5 37.5 q0 13 2.5 35t6.5 49t9 58t10 63q1 30 2 67t2 73.5t1.5 70t0.5 57.5q0 51 -3 93t-11.5 72t-23.5 46.5t-39 16.5q-29 0 -55.5 -20.5t-50.5 -56t-46.5 -83t-44.5 -101.5v-12q-3 -88 -5 -187t-3 -216q0 -20 -13.5 -33.5t-31.5 -22t-37 -12.5t-31 -4q-15 0 -28 9t-13 40z" />
<glyph unicode="n" d="M-33 49q0 15 3 37.5t7.5 48.5t10 53.5t10.5 51.5v489q0 20 0.5 31.5t3.5 17.5q6 14 21 22t32 12.5t33 5.5t25 1q17 0 23.5 -9t6.5 -32q0 3 -4.5 -49t-7.5 -149q30 47 65 90t73 76t78.5 53t82.5 20q75 0 110 -47.5t35 -128.5q0 -51 -6.5 -113.5t-15 -127t-15 -126 t-6.5 -112.5q0 -66 41 -66q13 0 30.5 13.5t44 50.5t63.5 101.5t88 166.5l10 21l41 -31l-10 -21q-60 -120 -106.5 -197t-84.5 -122t-71 -62.5t-66 -17.5q-21 0 -42 6t-37 21t-26 40.5t-10 65.5q0 60 8 135t18 150t18 141.5t8 108.5q0 37 -16 59.5t-48 22.5q-28 0 -62.5 -25 t-69.5 -64.5t-67.5 -88.5t-56.5 -97q-3 -88 -5.5 -192t-2.5 -222q0 -15 -13.5 -26.5t-31.5 -19t-37 -11.5t-31 -4q-15 0 -28 9t-13 40z" />
<glyph unicode="o" horiz-adv-x="797" d="M-10 410q0 74 17 134.5t43 108t58 83t63 58.5t56.5 34.5t38.5 11.5l13 -35q-41 -30 -73 -84q-28 -46 -50.5 -122t-22.5 -189q0 -69 13 -134t38 -115t61.5 -80t82.5 -30q63 0 104.5 50.5t61.5 138.5q-52 11 -99 41t-83 74.5t-57.5 102.5t-21.5 126q0 56 14.5 98.5t38.5 71 t55.5 43t66.5 14.5q41 0 84 -23.5t78 -70t57 -116.5t22 -163q0 -35 -4 -69t-12 -66q48 14 87.5 45t65.5 82l11 21l41 -31l-11 -21q-34 -68 -90.5 -108.5t-122.5 -52.5q-18 -51 -46.5 -94.5t-65 -75.5t-82 -50t-98.5 -18q-77 0 -138.5 32.5t-104.5 88t-66 130t-23 159.5z M299 592q0 -59 16.5 -108.5t44.5 -87t65 -62.5t79 -35q5 28 6.5 58.5t1.5 62.5q0 71 -11 128.5t-29 98t-42 62.5t-49 22q-34 0 -58 -36.5t-24 -102.5z" />
<glyph unicode="p" horiz-adv-x="778" d="M-18 -481q0 7 2 25t4 54.5t4 96t2 151.5v553q0 111 -1 177.5t-2 104t-2 53.5t-1 28q0 10 10 20t26 18t34.5 13.5t35.5 5.5t27 -9t10 -32v-147q17 37 41 71t55 60t69 41.5t83 15.5q60 0 106 -28.5t77 -76t47 -110t16 -129.5q0 -103 -20.5 -185.5t-55.5 -144.5 q54 41 109.5 109t109.5 176l10 21l41 -31l-10 -21q-46 -92 -101 -166t-116.5 -125.5t-128.5 -79.5t-137 -28q-62 0 -114.5 27t-80.5 67v-473q0 -38 -5.5 -63.5t-18 -41t-33.5 -22t-51 -6.5q-23 0 -32 7.5t-9 23.5zM133 305q0 -54 14.5 -98t38.5 -75t56.5 -47.5t68.5 -16.5 q85 0 128.5 88t43.5 276q0 64 -9 119t-28 95t-49 62.5t-71 22.5q-42 0 -77.5 -29t-61 -74.5t-40 -100.5t-14.5 -107v-115z" />
<glyph unicode="q" horiz-adv-x="829" d="M-6 360q0 116 27.5 202.5t71 143.5t97.5 85t107 28q38 0 70 -12t57.5 -31t43.5 -42.5t28 -45.5q2 40 8 65.5t17.5 40t29.5 20t45 5.5q23 0 32 -7.5t9 -23.5q0 -8 -1.5 -23.5t-3.5 -42.5t-3.5 -66t-1.5 -93v-438q19 22 40 49.5t44.5 63.5t50 83t57.5 109l10 21l41 -31 l-10 -21q-62 -121 -123.5 -211t-109.5 -147v-369q0 -57 -4.5 -93t-16 -56.5t-31.5 -27.5t-51 -7q-23 0 -32 7.5t-9 23.5q0 7 1.5 23t4 43t4 66t1.5 93v424q-39 -82 -98.5 -125t-131.5 -43q-65 0 -115.5 28.5t-85 78t-52 114.5t-17.5 139zM127 426q0 -82 16 -141t42.5 -97.5 t59.5 -56.5t68 -18q40 0 73 16t57 53t37.5 97t15.5 147v45q0 42 -12 92.5t-35 93.5t-58 72t-80 29q-35 0 -68 -16.5t-58.5 -55t-41.5 -102.5t-16 -158z" />
<glyph unicode="r" horiz-adv-x="604" d="M-61 791q0 23 8 41t21.5 30t30 18.5t34.5 6.5q24 0 42 -10t30 -26.5t18 -38t6 -44.5q28 0 60.5 8t65.5 17.5t65 17.5t59 8q23 0 37 -9.5t14 -31.5q0 -16 -9.5 -53t-23.5 -86t-30.5 -106.5t-30.5 -116t-23.5 -113.5t-9.5 -98q0 -54 12 -73t43 -19q13 0 32.5 11.5t47.5 45 t66.5 96t89.5 164.5l10 21l41 -31l-10 -21q-60 -120 -107 -197t-86.5 -122t-74.5 -62.5t-70 -17.5q-59 0 -96 45t-37 139q0 51 14 106t35 109.5t47 107.5t49.5 100.5t42.5 88.5t27 72l-6 6q-16 0 -43 -17t-60.5 -38.5t-71.5 -40.5t-77 -23q-2 -14 -8.5 -41t-17.5 -60 t-25 -68t-29 -66l-10 -21l-41 31l10 21q15 30 27.5 62t21.5 60.5t14 51t7 34.5q-26 3 -50 13t-42 27t-28.5 40t-10.5 52zM18 811q0 -12 6 -20.5t15 -14t18.5 -8t16.5 -2.5q0 28 -9 46.5t-26 18.5q-9 0 -15 -6t-6 -14z" />
<glyph unicode="s" horiz-adv-x="666" d="M-10 430l102 223q-37 35 -54.5 66.5t-17.5 75.5q0 24 8.5 45.5t23 37t33.5 24.5t40 9q38 0 57 -21.5t19 -53.5q0 -15 -3 -31.5t-7.5 -33t-9 -30.5t-7.5 -24q30 -23 72 -44.5t87.5 -44.5t90.5 -50t80.5 -60t57.5 -75t22 -95q0 -68 -20.5 -130.5t-60 -111t-98 -77.5 t-133.5 -29q-54 0 -96.5 17.5t-72.5 47t-46 67t-16 77.5t15.5 74.5t42 59t60.5 38.5t72 14q24 0 50 -6v-29q-32 0 -62.5 -13t-54 -35.5t-37.5 -54t-14 -67.5q0 -66 45.5 -105.5t124.5 -39.5q40 0 73 15.5t56.5 43t36 65.5t12.5 83q0 43 -17 80t-45 70t-63.5 62t-72 55.5 t-71.5 51.5t-61 50l-100 -222zM96 831q0 -18 9 -40t32 -43q10 21 15.5 41t5.5 40q0 16 -8.5 26.5t-22.5 10.5t-22.5 -9.5t-8.5 -25.5z" />
<glyph unicode="t" horiz-adv-x="477" d="M-66 758l11 61h88q14 102 28.5 204.5t26.5 205.5h102q-2 -22 -5.5 -63.5t-8 -96t-8.5 -119t-8 -131.5h194l-10 -61h-188q-4 -57 -7 -112t-5.5 -104.5t-3.5 -91t-1 -71.5q0 -76 4.5 -127t14 -82t24 -44t33.5 -13q25 0 55.5 25.5t63.5 68.5t67 100.5t66 122.5l10 21l41 -31 l-10 -21q-46 -93 -91.5 -167t-89.5 -125.5t-86 -79t-81 -27.5t-69.5 18t-51.5 57.5t-32 101.5t-11 151q0 106 8 213t21 217h-91z" />
<glyph unicode="u" d="M-8 287q0 84 6 168.5t14.5 154.5t16.5 117t12 57q4 9 16 16t27.5 11t32 6t28.5 2q16 0 25.5 -8t9.5 -27q0 -9 -3.5 -35.5t-8.5 -64.5t-10.5 -84t-10.5 -93.5t-8.5 -94t-3.5 -84.5q0 -109 23.5 -162t77.5 -53q46 0 93.5 67t82.5 195q5 54 9.5 115.5t8.5 117t7.5 99.5 t6.5 63q3 14 16 23.5t29.5 15t32 8t23.5 2.5q17 0 23.5 -7.5t6.5 -23.5q0 -14 -2.5 -53.5t-6 -92l-7.5 -112.5t-7.5 -115.5t-6 -100.5t-2.5 -68q0 -68 7.5 -107t33.5 -39q19 0 41.5 24.5t49 68.5t57.5 104.5t67 132.5l10 21l41 -31l-10 -21q-48 -95 -84.5 -169.5 t-69.5 -125.5t-67 -77.5t-76 -26.5q-39 0 -64.5 15t-40.5 43t-21.5 68t-6.5 91q-5 -8 -14.5 -27.5t-24 -43.5t-34 -50t-44.5 -47t-55.5 -35t-67.5 -14q-29 0 -60 12t-57.5 44t-43.5 87.5t-17 143.5z" />
<glyph unicode="v" horiz-adv-x="694" d="M-16 297q0 40 2 89.5t5.5 100.5t8 100t9.5 89.5t10 68t10 35.5q12 22 40 30.5t54 8.5q18 0 31.5 -13t13.5 -48q0 -39 -6.5 -99t-14 -133.5t-14 -157.5t-6.5 -171q0 -70 23 -96.5t63 -26.5q28 0 57 15t55.5 41t49.5 62t41 78q-57 35 -96 114.5t-39 201.5q0 61 13 103.5 t34.5 69.5t48.5 39.5t55 12.5q25 0 49 -10t42 -32.5t29 -59.5t11 -91q0 -68 -16.5 -152.5t-48.5 -168.5q5 0 10 -1t10 -1q56 0 95.5 36.5t70.5 98.5l10 21l41 -31l-10 -21q-40 -78 -96.5 -116.5t-116.5 -38.5q-9 0 -19.5 1t-15.5 3q-23 -51 -54 -96t-68.5 -78.5t-82 -53.5 t-94.5 -20q-41 0 -76 12.5t-61.5 46t-41.5 91t-15 147.5zM336 582q0 -96 28.5 -161.5t71.5 -96.5q22 63 34.5 130.5t12.5 129.5q0 40 -6.5 67.5t-16.5 44.5t-23.5 24t-26.5 7q-14 0 -27 -7.5t-23.5 -24.5t-17 -45t-6.5 -68z" />
<glyph unicode="w" horiz-adv-x="995" d="M-6 324q0 101 8 182t19 139.5t22 92t16 40.5q7 9 18.5 17t23.5 13t24 8t20 3q23 0 32 -9t9 -32q-1 0 -4.5 -20.5t-8.5 -55.5t-11 -81.5t-10.5 -98.5t-7.5 -105.5t-3 -103.5q0 -44 3 -82t10.5 -67t19 -45.5t29.5 -16.5t34 23.5t30 61t26 84t22 94t18.5 90t14.5 71.5 q4 15 15.5 27.5t27.5 21.5t34 14t34 5q12 0 16 -7.5t4 -23.5q0 -90 11 -175t31.5 -151t48.5 -105.5t63 -39.5q24 0 45 18.5t37.5 46t27 58.5t13.5 55q-40 17 -75 54.5t-61.5 88t-41.5 109.5t-15 119q0 33 7 65t21.5 57t36.5 40.5t52 15.5q40 0 69.5 -25t49 -67.5t29.5 -98.5 t10 -118q0 -46 -6 -102t-16 -103h20q50 0 86.5 36t62.5 89l10 21l41 -31l-10 -21q-32 -63 -83 -103t-122 -40h-14q-15 -54 -36 -100.5t-48.5 -81t-60.5 -54.5t-70 -20q-43 0 -75.5 17t-56.5 45.5t-40.5 64t-27 73t-16.5 73t-9 63.5q-8 -33 -17 -70.5t-21 -75t-28 -72 t-37.5 -60.5t-49 -42t-62.5 -16q-46 0 -76.5 26.5t-48.5 71.5t-25.5 103.5t-7.5 122.5zM621 639q0 -46 10 -94.5t29 -91.5t45.5 -77t58.5 -52q1 12 2.5 28t2 33.5t1 34t0.5 29.5q0 56 -7 108.5t-20 93.5t-31 65.5t-40 24.5q-15 0 -25 -9.5t-16 -24.5t-8 -33t-2 -35z" />
<glyph unicode="x" horiz-adv-x="768" d="M-10 430l10 21q37 75 62 131t43 97t31 68t27 43t31.5 22.5t43.5 6.5q22 0 38 -12t32 -50.5t36 -111t51 -194.5q25 32 50.5 68t46 72t33 69.5t12.5 60.5q0 17 -4 29.5t-9 20.5q-5 10 -12 17l20 31q26 -1 46 -9q17 -7 32 -21.5t15 -40.5q0 -30 -15.5 -68t-43.5 -83 t-67 -97.5t-87 -110.5q24 -90 44 -142.5t36.5 -80t31 -35.5t29.5 -8q19 0 40.5 22t46.5 62.5t54 97t64 125.5l10 21l41 -31l-10 -21q-54 -107 -93.5 -182.5t-73.5 -123.5t-67 -70.5t-73 -22.5q-31 0 -56 8t-48.5 37t-46.5 85t-50 151l-43 -52q-71 -84 -102 -139.5t-31 -93.5 q0 -26 6.5 -46t15.5 -32l-14 -31q-14 0 -32 2.5t-33.5 10.5t-26.5 22t-11 37q0 20 6 40.5t26.5 53.5t61 85t109.5 136l51 62q-32 117 -48.5 185t-25.5 102.5t-13.5 43.5t-12.5 9t-17.5 -16.5t-25 -48.5t-37.5 -80t-53 -111l-10 -21z" />
<glyph unicode="y" horiz-adv-x="795" d="M-20 246q0 84 10 171t23.5 162t27.5 131.5t22 80.5q4 10 19 16t32 8.5t32 3t20 0.5q15 0 19.5 -7.5t4.5 -23.5q0 -8 -5 -35.5t-12.5 -68.5t-16 -93t-16 -107t-12.5 -111.5t-5 -106.5q0 -87 29 -130.5t67 -43.5q66 0 117 97t106 284v291q0 17 15.5 27.5t35.5 16.5t39 8.5 t27 2.5q31 0 31 -31q0 -11 -1.5 -36.5t-3.5 -60t-3.5 -76t-1.5 -83.5v-407q18 23 45.5 61t57 81t57 86t44.5 77l11 21l41 -31l-11 -21q-21 -42 -50 -87t-61.5 -90.5t-67 -90t-66.5 -84.5v-221q0 -92 -16.5 -156.5t-45.5 -105t-68 -58.5t-85 -18q-29 0 -53.5 9t-42.5 26.5 t-28 42t-10 55.5q0 45 16.5 90t46 93t68.5 98.5t84 105.5v303q-25 -68 -54 -125.5t-63 -98.5t-73 -64t-84 -23q-32 0 -65.5 10.5t-62 38.5t-46.5 75.5t-18 121.5zM289 -373q0 -31 17 -54.5t48 -23.5q16 0 32.5 6.5t29.5 29.5t21.5 68t8.5 122v151q-34 -42 -62.5 -81.5 t-49.5 -77t-33 -72.5t-12 -68z" />
<glyph unicode="z" horiz-adv-x="717" d="M-10 430l30 62q25 51 56.5 108t72 106t92 81t117.5 32q50 0 90 -15.5t67.5 -42.5t42.5 -64t15 -81q0 -54 -26.5 -109t-68.5 -106t-93.5 -95t-101.5 -75q43 -26 84 -66t73 -95q29 31 64 69.5t70.5 84.5t69.5 97.5t63 108.5l10 21l41 -31l-10 -21q-29 -58 -64.5 -110.5 t-73 -99.5t-75 -89t-70.5 -80q17 -42 27 -89.5t10 -104.5q0 -92 -16.5 -156.5t-45 -105t-68 -58.5t-85.5 -18q-57 0 -95 35.5t-38 97.5q0 39 14.5 80.5t40 86t59.5 91.5t74 98q-13 49 -31 86.5t-37.5 63.5t-38 41.5t-32.5 21.5q-43 -16 -66 -16q-34 0 -50.5 15.5t-16.5 33.5 q0 20 18 36.5t53 16.5q16 0 34 -4t38 -10q48 25 89 63.5t72 84t48.5 96t17.5 98.5q0 31 -7.5 57t-23 45.5t-38.5 30.5t-54 11q-42 0 -78 -26.5t-67.5 -68.5t-58.5 -93t-52 -99l-30 -62zM211 -373q0 -31 17.5 -54.5t47.5 -23.5q16 0 32.5 6.5t29.5 29.5t21 68t8 122 q0 38 -3 72t-8 63q-63 -81 -104 -152.5t-41 -130.5z" />
<glyph unicode="{" horiz-adv-x="768" d="M121 819v41q64 0 107.5 9t69.5 25.5t37 39t11 49.5q0 46 -13 110.5t-28 137.5t-28 149.5t-13 145.5q0 60 17 97.5t46 58.5t67.5 28.5t80.5 7.5t84 -4.5t80 -7.5l-2 -41l-66 2q-29 1 -59.5 -4.5t-56 -22.5t-42 -49.5t-16.5 -85.5q0 -57 11 -123.5t24.5 -132t25 -124.5 t11.5 -101q0 -69 -41 -116.5t-117 -67.5q76 -22 117 -68.5t41 -116.5q0 -42 -11.5 -101t-25 -124t-24.5 -131.5t-11 -124.5q0 -53 16.5 -85t42 -49.5t56 -23t59.5 -4.5l66 2l2 -41q-43 -5 -86.5 -8.5t-83.5 -3.5q-43 0 -80.5 7.5t-65 29t-43.5 59t-16 97.5q0 69 13 145 t28 149t28 137.5t13 110.5q0 27 -11 49.5t-37 39t-69.5 25.5t-107.5 9z" />
<glyph unicode="|" horiz-adv-x="328" d="M123 -51v1782h82v-1782h-82z" />
<glyph unicode="}" horiz-adv-x="768" d="M127 -27l2 41l66 -2q29 -1 59.5 4.5t56 23t42 49.5t16.5 85q0 58 -11.5 124.5t-25 131.5t-24.5 124t-11 101q0 70 41 116.5t117 68.5q-76 20 -117 67.5t-41 116.5q0 42 11 101t24.5 124.5t25 132t11.5 123.5q0 53 -16.5 85.5t-42 49.5t-56 22.5t-59.5 4.5l-66 -2l-2 41 q38 3 80 7.5t82 4.5q43 0 81.5 -7.5t67.5 -28.5t46.5 -58.5t17.5 -97.5q0 -69 -13 -145.5t-28 -149.5t-28 -137.5t-13 -110.5q0 -27 11 -49.5t37 -39t69 -25.5t108 -9v-41q-65 0 -108 -9t-69 -25.5t-37 -39t-11 -49.5q0 -46 13 -110.5t28 -137.5t28 -149t13 -145 q0 -60 -16 -97.5t-43.5 -59t-65 -29t-80.5 -7.5q-40 0 -83.5 3.5t-86.5 8.5z" />
<glyph unicode="~" horiz-adv-x="758" d="M123 492q5 45 22 81q14 31 42.5 56.5t78.5 25.5q31 0 63 -9.5t65 -21t65 -21t63 -9.5q23 0 37 9.5t22 20.5q9 13 13 31h41q-5 -46 -22 -82q-14 -31 -43 -56t-78 -25q-31 0 -63.5 9.5t-65.5 21t-65 21t-62 9.5q-23 0 -37 -10t-22 -21q-9 -13 -13 -30h-41z" />
<glyph unicode="&#xa1;" horiz-adv-x="430" d="M100 -211q0 28 3.5 81.5t9 123t13 150t15 164t15 165t13.5 152.5t10 127t5 88l52 -2q0 -127 1.5 -253.5t2 -255t-0.5 -260t-6 -266.5q-1 -16 -12 -28t-25.5 -19.5t-30 -11.5t-24.5 -4q-7 0 -14 0.5t-13 5t-10 14.5t-4 29zM123 1085q0 19 7 36t19.5 30t29.5 20t36 7t36 -7 t29.5 -20t19.5 -30t7 -36t-7 -36t-19 -29.5t-29 -19.5t-37 -7q-19 0 -36 7t-29.5 19.5t-19.5 29.5t-7 36z" />
<glyph unicode="&#xa2;" horiz-adv-x="922" d="M127 772q0 67 21 135.5t60.5 128.5t98 107t133.5 71v302h62v-287l61 6q50 0 87 -12t61.5 -32t36.5 -45t12 -52q0 -42 -22 -71t-48 -48q-31 -22 -69 -35l-25 45q12 11 22 25q8 12 15.5 30t7.5 41q0 18 -7.5 34t-21.5 28t-33.5 19t-43.5 7q-10 0 -17.5 -1t-15.5 -1v-624h20 q60 0 110.5 18t87.5 41q43 26 79 60l35 -39q-41 -44 -92 -81q-44 -32 -104.5 -60.5t-135.5 -35.5v-344h-62v342q-81 4 -140.5 32t-97.5 73t-56.5 102.5t-18.5 120.5zM262 838q0 -48 10.5 -93t32.5 -83t55.5 -66.5t79.5 -42.5v598q-44 -18 -77 -51.5t-55.5 -75.5t-34 -90 t-11.5 -96z" />
<glyph unicode="&#xa3;" horiz-adv-x="1147" d="M127 358q0 27 10.5 53.5t32.5 47.5t56.5 34t82.5 13q47 0 87 -9.5t77 -23.5q0 9 1 20t1 23q0 79 -16 144.5t-39 123.5h-211v50h188q-22 46 -44.5 90.5t-41 89.5t-30 92.5t-11.5 101.5q0 74 29 128t76.5 89.5t107 52.5t121.5 17q68 0 119.5 -20t86 -53t52 -75.5 t17.5 -86.5q0 -73 -49 -129t-140 -82l-24 36q54 31 86 84t32 125q0 34 -11.5 64t-34 51.5t-56 34t-76.5 12.5q-35 0 -68.5 -13t-59 -39t-41 -65t-15.5 -90q0 -53 9 -103.5t22.5 -101t29.5 -102.5t31 -108h268v-50h-256q14 -57 22.5 -117.5t8.5 -129.5q0 -28 -2.5 -52 t-7.5 -47q29 -14 56.5 -27.5t55 -24.5t55 -17.5t56.5 -6.5q37 0 72.5 14.5t66.5 41.5t56 65t41 84l38 -12q-11 -55 -36 -115.5t-63.5 -111.5t-88 -84t-108.5 -33q-38 0 -70 12t-60.5 30t-55 40t-52.5 43q-19 -33 -44 -57t-53 -39.5t-58 -23t-58 -7.5q-34 0 -64.5 10 t-54 28.5t-37.5 46.5t-14 64zM178 358q0 -24 9.5 -42t26 -30.5t38 -19t45.5 -6.5q21 0 43.5 6t43.5 20.5t39 37t30 55.5q-38 28 -79 46.5t-93 18.5q-50 0 -76.5 -26t-26.5 -60z" />
<glyph unicode="&#xa4;" horiz-adv-x="1106" d="M123 399l143 144q-34 45 -52.5 99t-18.5 116q0 60 18.5 114t52.5 101l-143 143l72 72l143 -144q45 35 99 53.5t116 18.5q60 0 114 -20t99 -54l145 146l72 -72l-145 -145q34 -45 53.5 -99t19.5 -114q0 -62 -18.5 -116t-52.5 -99l143 -144l-72 -71l-143 143 q-46 -34 -100.5 -53t-114.5 -19q-62 0 -116 19t-99 53l-143 -143zM276 758q0 -58 21.5 -108.5t59 -88t88 -59t108.5 -21.5t108 21.5t87.5 59t59 88t21.5 108.5q0 57 -21.5 107.5t-59 88t-87.5 59t-108 21.5t-108.5 -21.5t-88 -59t-59 -88t-21.5 -107.5z" />
<glyph unicode="&#xa5;" horiz-adv-x="1055" d="M102 1333q38 26 83.5 47t90.5 21q24 0 44.5 -8.5t41 -30.5t44 -59.5t52.5 -94.5t66.5 -137t87.5 -186l25 -54q31 54 63 113t58 118t42.5 117t16.5 109q0 35 -8.5 59.5t-19.5 40.5q-12 18 -27 29l22 47q34 0 62 -6t48 -19.5t31 -34.5t11 -52q0 -52 -21 -119t-59 -147 t-90 -173.5t-113 -197.5h193v-62h-228l-47 -82h275v-61h-309q-60 -109 -88.5 -183t-28.5 -122q0 -24 5.5 -44.5t13.5 -37t18 -28.5t18 -19l-12 -49q-9 -2 -19.5 -3t-21.5 -1q-26 0 -49.5 4.5t-40.5 18t-27 36.5t-10 61q0 22 8 51t27.5 71t51 101.5t79.5 143.5h-178v61h213 l47 82h-260v62h241q-17 38 -33 72.5t-30 66.5q-65 145 -105 234t-67 137.5t-46 65t-40 16.5q-11 0 -25 -3t-26 -6q-14 -4 -29 -8z" />
<glyph unicode="&#xa6;" horiz-adv-x="328" d="M123 -51v768h82v-768h-82zM123 963v768h82v-768h-82z" />
<glyph unicode="&#xa7;" horiz-adv-x="983" d="M123 891q0 114 59 205q-28 35 -43.5 78t-15.5 96q0 88 36.5 163t98 129.5t143.5 85.5t172 31q76 0 130.5 -19t89 -49.5t51 -69.5t16.5 -79q0 -45 -16 -82.5t-39 -66t-48.5 -48t-45.5 -28.5l-23 29q19 26 34 72t15 96q0 35 -9 68.5t-32 59t-63 41t-101 15.5t-120 -18.5 t-105 -53t-74 -84.5t-28 -112q0 -64 27 -113t70.5 -89t99.5 -72.5t114.5 -63.5t115 -62.5t100 -68.5t70.5 -82t27 -103q0 -51 -18.5 -98.5t-52.5 -85.5q34 -38 52.5 -85.5t18.5 -109.5q0 -64 -29.5 -121.5t-80.5 -101t-120.5 -69t-149.5 -25.5q-92 0 -153 19t-97 48t-51 63 t-15 63q0 55 25.5 95.5t62 68t77 43t69.5 20.5l8 -41q-9 -3 -25.5 -14t-33 -30.5t-28.5 -47t-12 -62.5q0 -41 14.5 -73.5t40 -55t59 -34t71.5 -11.5q44 0 91 13t86 39.5t64 67t25 95.5q0 63 -26 110.5t-68.5 85.5t-96.5 68t-111 58.5t-111 57.5t-96.5 64t-68.5 79t-26 102z M215 983q0 -58 23.5 -102t63 -79.5t90.5 -64.5t105.5 -57t108.5 -56.5t99 -62.5q12 31 12 64q0 55 -24.5 97t-65 75.5t-92.5 61.5t-107 56.5t-108 60t-95 71.5q-5 -16 -7.5 -31.5t-2.5 -32.5z" />
<glyph unicode="&#xa8;" horiz-adv-x="430" d="M0 1065q0 34 24 58t58 24q35 0 58.5 -24t23.5 -58q0 -35 -23.5 -58.5t-58.5 -23.5q-34 0 -58 23.5t-24 58.5zM266 1065q0 34 24 58t58 24q35 0 58.5 -24t23.5 -58q0 -35 -23.5 -58.5t-58.5 -23.5q-34 0 -58 23.5t-24 58.5z" />
<glyph unicode="&#xa9;" horiz-adv-x="1393" d="M123 573q0 119 45 223.5t122.5 182.5t182 123t223.5 45t223.5 -45t182.5 -123t123 -182.5t45 -223.5t-45 -223.5t-123 -182t-182.5 -122.5t-223.5 -45t-223.5 45t-182 122.5t-122.5 182t-45 223.5zM184 573q0 -105 40.5 -198t110.5 -163t163 -110.5t198 -40.5t198.5 40.5 t163 110.5t110 163t40.5 198t-40.5 198.5t-110 163t-163 110t-198.5 40.5t-198 -40.5t-163 -110t-110.5 -163t-40.5 -198.5zM393 559q0 76 23.5 150.5t67 133t105.5 94.5t140 36q46 0 80.5 -13t57 -33t33.5 -43t11 -44q0 -22 -9 -44t-26.5 -41.5t-41.5 -35t-54 -23.5l-10 29 q17 26 24.5 60t1.5 64.5t-27.5 51.5t-61.5 21q-38 0 -68 -22t-51 -61.5t-32 -94.5t-11 -121q0 -59 12 -115.5t38 -101t65.5 -72t95.5 -27.5q45 0 82.5 19t66.5 47t50 59.5t34 56.5l41 -28q-24 -50 -57.5 -97.5t-75.5 -85t-93 -60.5t-112 -23q-75 0 -131 30.5t-93.5 81.5 t-56 116.5t-18.5 135.5z" />
<glyph unicode="&#xaa;" horiz-adv-x="737" d="M82 1079q0 77 20.5 141.5t54.5 111t79 72.5t94 26q42 0 70.5 -15.5t46.5 -34.5q21 -22 34 -49l6 47q2 15 12 25t23 16t26 8.5t21 2.5q14 0 19.5 -6.5t5.5 -20.5q0 -9 -5.5 -47t-12 -93t-12 -122.5t-5.5 -136.5q0 -47 9 -72t26 -25q11 0 19 6.5t16 14.5l26 -31 q-12 -22 -28 -39q-14 -15 -32 -27t-40 -12q-50 0 -69.5 37t-24.5 107q-8 -20 -25 -44.5t-41 -47t-54 -37.5t-65 -15q-38 0 -73 15.5t-62 47.5t-43 81t-16 116zM205 1135q0 -104 33.5 -158.5t87.5 -54.5q24 0 50 19t47 54.5t34.5 86t13.5 114.5q0 33 -9.5 64t-26 55 t-38.5 38.5t-47 14.5q-31 0 -57.5 -17t-46 -47.5t-30.5 -73.5t-11 -95z" />
<glyph unicode="&#xab;" horiz-adv-x="1116" d="M123 461l614 461l41 -52l-461 -409l461 -410l-41 -51zM438 461l514 461l41 -52l-389 -409l389 -410l-41 -51z" />
<glyph unicode="&#xad;" horiz-adv-x="737" d="M123 532v82h491v-82h-491z" />
<glyph unicode="&#xae;" horiz-adv-x="922" d="M123 1157q0 70 26.5 131.5t72.5 107.5t107.5 72.5t131.5 26.5t131.5 -26.5t107.5 -72.5t72.5 -107.5t26.5 -131.5t-26.5 -131.5t-72.5 -107.5t-107.5 -72.5t-131.5 -26.5t-131.5 26.5t-107.5 72.5t-72.5 107.5t-26.5 131.5zM184 1157q0 -57 22 -107t59.5 -87.5t88 -59.5 t107.5 -22t107 22t87.5 59.5t59.5 87.5t22 107t-22 107.5t-59.5 88t-87.5 59.5t-107 22t-107.5 -22t-88 -59.5t-59.5 -88t-22 -107.5zM334 958v390h164q23 0 43.5 -9t35.5 -24.5t24 -36t9 -43.5q0 -37 -20.5 -65.5t-52.5 -41.5l84 -141l-52 -31l-98 166h-76v-164h-61z M395 1184h103q20 0 35.5 15.5t15.5 35.5t-15.5 35.5t-35.5 15.5h-103v-102z" />
<glyph unicode="&#xaf;" horiz-adv-x="510" d="M0 1083q0 17 20.5 22t45.5 5q83 0 163.5 -3t161.5 -3h50.5t50.5 2q4 0 8 -6t6.5 -15t4 -19.5t1.5 -18.5q0 -17 -20.5 -22t-45.5 -5q-83 0 -163.5 3t-161.5 3h-51t-50 -2q-5 0 -9 6.5t-6.5 15.5t-3.5 19t-1 18z" />
<glyph unicode="&#xb0;" horiz-adv-x="594" d="M123 1331q0 36 13.5 67.5t37.5 55.5t55.5 37.5t67.5 13.5t67.5 -13.5t55.5 -37.5t37.5 -55.5t13.5 -67.5t-13.5 -67.5t-37.5 -55.5t-55.5 -37.5t-67.5 -13.5t-67.5 13.5t-55.5 37.5t-37.5 55.5t-13.5 67.5zM184 1331q0 -23 9 -43.5t24.5 -35.5t36 -24t43.5 -9t43.5 9 t36 24t24.5 35.5t9 43.5t-9 43.5t-24.5 36t-36 24.5t-43.5 9t-43.5 -9t-36 -24.5t-24.5 -36t-9 -43.5z" />
<glyph unicode="&#xb1;" horiz-adv-x="840" d="M114 164v82h604v-82h-604zM123 593v82h246v256h92v-256h246v-82h-246v-266h-92v266h-246z" />
<glyph unicode="&#xb2;" horiz-adv-x="584" d="M82 942q0 73 23 127.5t56.5 97t72.5 76.5t72.5 66.5t56 66.5t22.5 78q0 25 -8 41t-21.5 25t-30 12.5t-34.5 3.5t-36.5 -4t-32.5 -13.5t-23 -25.5t-9 -39q0 -31 15 -47t41 -16v-39q-13 -8 -30 -13.5t-34 -5.5t-33 5t-29 15.5t-20.5 28t-7.5 41.5q0 39 17.5 68t45.5 48 t63.5 28.5t72.5 9.5q35 0 68.5 -8.5t59.5 -27t42 -47.5t16 -71q0 -51 -20 -84.5t-51 -58.5t-69 -45t-75 -44t-68 -56t-47 -80q7 9 30 17.5t46 8.5q28 0 51.5 -6t45.5 -12.5t43.5 -12.5t44.5 -6q15 0 28 4.5t23 10.5q11 7 20 16l23 -22q-12 -22 -24.5 -42t-26 -35.5 t-29.5 -24.5t-35 -9q-29 0 -55.5 10t-51 22t-46.5 22t-41 10q-20 0 -33 -9t-21 -20t-11.5 -21.5l-4.5 -13.5h-41z" />
<glyph unicode="&#xb3;" horiz-adv-x="584" d="M82 1092q0 35 19.5 62.5t43.5 41.5l33 -16q-9 -20 -12.5 -39.5t-3.5 -40.5q0 -35 10 -59.5t27 -40.5t38 -23.5t44 -7.5t42.5 7.5t34 24t23 43t8.5 64.5q0 30 -7 57.5t-24 48.5t-44.5 33.5t-67.5 12.5l-10 20q54 29 88 77t34 118q0 75 -67 75q-17 0 -33 -5.5t-29 -17 t-20.5 -28.5t-7.5 -39q0 -20 7 -35t16 -25q11 -11 24 -20l-8 -18q-48 11 -80.5 36t-32.5 56t16.5 55.5t43.5 41.5t61 25.5t69 8.5q28 0 54.5 -6.5t47 -19t32.5 -32t12 -46.5q0 -33 -17 -63.5t-39 -55t-43.5 -42.5t-29.5 -26q31 -5 61 -19t54 -35.5t38.5 -50.5t14.5 -65 q0 -52 -19.5 -89t-50 -60t-69 -34t-76.5 -11q-46 0 -84 11.5t-65 32.5t-41.5 51t-14.5 67z" />
<glyph unicode="&#xb4;" horiz-adv-x="297" d="M0 971l193 200l104 -102l-270 -141z" />
<glyph unicode="&#xb5;" d="M-39 -479q0 15 2 37.5t6 48.5t8.5 53t10.5 51q0 200 1 355.5t3 272.5t4.5 199t5 134.5t5.5 79t5 32.5q4 9 16.5 16t28 11t32 6t28.5 2q15 0 25 -8t10 -27q0 -14 -2.5 -52t-6 -97.5t-6 -137t-2.5 -169.5q0 -56 7.5 -97t20.5 -67t30.5 -38.5t37.5 -12.5q25 0 51.5 18 t51 51.5t45 82t33.5 110.5q5 54 9.5 115.5t8.5 117t7.5 99.5t6.5 63q3 14 16 23.5t29.5 15t32 8t23.5 2.5q17 0 23.5 -7.5t6.5 -23.5q0 -14 -2.5 -53.5t-6 -92l-7.5 -112.5t-7.5 -115.5t-6 -100.5t-2.5 -68q0 -68 7.5 -107t33.5 -39q19 0 41.5 24.5t49 68.5t57.5 104.5 t67 132.5l10 21l41 -31l-10 -21q-48 -95 -84.5 -169.5t-69.5 -125.5t-67 -77.5t-76 -26.5q-39 0 -64.5 15t-40.5 43t-21.5 68t-6.5 91q-13 -41 -34 -79.5t-48 -69.5t-58 -49.5t-65 -18.5q-13 0 -26 3.5t-24.5 8.5t-19.5 11t-12 12q-3 -112 -5.5 -238t-2.5 -254 q0 -19 -13.5 -32.5t-31.5 -22t-37 -12.5t-31 -4q-15 0 -28 9t-13 40z" />
<glyph unicode="&#xb6;" horiz-adv-x="1544" d="M0 1192q0 91 36 178.5t106.5 156t176 110.5t244.5 42q46 0 105 -3t122.5 -8t127 -10.5t117.5 -10.5t94 -8t58 -3q20 0 46.5 2t54.5 7t55.5 13t48.5 19l41 -30q-22 -30 -39 -67t-29 -90t-18 -127t-6 -177v-1043q0 -84 -2.5 -143.5t-12 -104t-28.5 -79.5t-51 -72 q-42 -48 -111 -83t-162 -50l-10 53q51 20 92 54t70 81.5t45 107t16 130.5v1010q0 80 3.5 152.5t19 141t46.5 133t85 128.5q-51 -32 -105 -44t-110 -12q-35 0 -81.5 3t-98 7.5t-105 10t-103.5 10t-92.5 7.5t-72.5 3q-92 0 -164 -38t-121.5 -100t-75.5 -140t-26 -158 q0 -71 22 -138.5t67 -119.5t114 -83.5t163 -31.5q89 0 161.5 13t126.5 29q62 18 112 42v-53q-50 -23 -112 -41q-54 -16 -126.5 -28.5t-161.5 -12.5q-140 0 -243.5 39.5t-172 105t-102.5 149t-34 171.5zM174 -31q0 54 17.5 97t45 76t61 57.5t65.5 40.5t58 24.5t39 11.5 l21 -40q-23 -12 -51.5 -32.5t-53.5 -52t-42 -76.5t-17 -106q0 -65 22 -116.5t61.5 -87t94 -54t119.5 -18.5q73 0 133 20t103.5 67t67.5 124.5t24 193.5v723q0 80 3.5 152.5t18.5 141t46 133t85 128.5l51 76l41 -31q-22 -30 -39 -67t-29 -89.5t-18 -126.5t-6 -177v-756 q0 -84 -2.5 -146.5t-12 -111t-28.5 -87t-51 -75.5q-56 -63 -157 -103t-240 -40q-86 0 -164 24t-137 67t-94 103t-35 133z" />
<glyph unicode="&#xb7;" horiz-adv-x="430" d="M123 543q0 19 7 36t19.5 29.5t29.5 19.5t36 7t36 -7t29.5 -19.5t19.5 -29.5t7 -36t-7 -36t-19.5 -29.5t-29.5 -19.5t-36 -7t-36 7t-29.5 19.5t-19.5 29.5t-7 36z" />
<glyph unicode="&#xb8;" horiz-adv-x="256" d="M0 -250q82 29 118 54t36 40q0 17 -30 27t-83 10v131h51v-37q84 0 124 -23t40 -61q0 -22 -15.5 -48t-45.5 -52t-75.5 -49t-105.5 -39z" />
<glyph unicode="&#xb9;" horiz-adv-x="328" d="M31 1368q31 26 53 51t38 50.5t27 52t21 55.5h74q2 -32 3 -81.5t1 -109.5q0 -54 -1 -112.5t-2.5 -117t-3.5 -113.5t-5 -101h-93q1 21 2 53t2 69.5t2 79t1 81.5q0 65 -2 109t-5 75q-10 -14 -24 -27q-12 -11 -29 -25t-39 -26z" />
<glyph unicode="&#xba;" horiz-adv-x="666" d="M82 1116q0 54 12.5 98t31.5 79t42.5 60.5t46.5 42.5t41.5 25.5t28.5 8.5l8 -25q-25 -16 -44 -52q-17 -32 -30.5 -88t-13.5 -149q0 -50 7.5 -94.5t23 -78.5t38.5 -53.5t54 -19.5q27 0 52.5 20t45.5 59t32.5 96.5t12.5 132.5q0 40 -7.5 72.5t-20 55t-29.5 34.5t-35 12 q-31 0 -49.5 -33t-30.5 -92l-43 12q15 85 48.5 129.5t84.5 44.5q41 0 76.5 -19.5t62 -54.5t41.5 -84t15 -108q0 -62 -17 -120.5t-48.5 -105t-77 -74.5t-103.5 -28t-105 23.5t-80.5 63.5t-52 94t-18.5 116z" />
<glyph unicode="&#xbb;" horiz-adv-x="1116" d="M123 51l389 410l-389 409l41 52l514 -461l-514 -461zM338 51l461 410l-461 409l41 52l614 -461l-614 -461z" />
<glyph unicode="&#xbc;" horiz-adv-x="717" d="M123 727v51h471v-51h-471zM133 233q72 63 114.5 121.5t65 110t29 95t6.5 75.5h103q0 -57 -26.5 -112.5t-64 -105.5t-77.5 -92t-66 -71h12q28 0 52 -9t45.5 -20.5t42.5 -23t43 -17.5q2 50 2 104v111l92 19q0 -42 -0.5 -104.5t-3.5 -131.5q11 2 22 5.5t19 7.5l10 -31 q-11 -9 -25 -16t-28 -9q0 -40 -2 -70.5t-4 -68.5h-93q4 38 5.5 68t3.5 71q-23 6 -44.5 18.5t-43.5 25t-46.5 21.5t-54.5 9q-26 0 -45.5 -10t-25.5 -17zM215 1286q31 26 53 51t38 50.5t27 52t21 55.5h74q2 -32 3 -81.5t1 -109.5q0 -54 -1 -112.5t-2.5 -117t-3.5 -113.5 t-5 -101h-93q1 21 2 53t2 69.5t2 79t1 81.5q0 65 -2 109t-5 75q-10 -14 -24 -27q-12 -11 -29 -25t-39 -26z" />
<glyph unicode="&#xbd;" horiz-adv-x="717" d="M123 727v51h471v-51h-471zM168 1q0 73 23 127.5t56.5 97t72.5 76.5t72.5 66.5t56 66.5t22.5 78q0 25 -8 41t-21.5 25t-30 12.5t-34.5 3.5t-36.5 -4t-32.5 -13.5t-23 -25.5t-9 -39q0 -31 15 -47t41 -16v-39q-13 -8 -30 -13.5t-34 -5.5t-33 5t-29 15.5t-20.5 28t-7.5 41.5 q0 39 17.5 68t45.5 48t63.5 28.5t72.5 9.5q35 0 68.5 -8.5t59.5 -27t42 -47.5t16 -71q0 -51 -20 -84.5t-51 -58.5t-69 -45t-75 -44t-68 -56t-47 -80q7 9 30 17.5t46 8.5q28 0 51.5 -6t45.5 -12.5t43.5 -12.5t44.5 -6q15 0 28 4.5t23 10.5q11 7 20 16l23 -22 q-12 -22 -24.5 -42t-26 -35.5t-29.5 -24.5t-35 -9q-29 0 -55.5 10t-51 22t-46.5 22t-41 10q-20 0 -33 -9t-21 -20t-11.5 -21.5l-4.5 -13.5h-41zM209 1287q31 26 53 51t38 50.5t27 52t21 55.5h74q2 -32 3 -81.5t1 -109.5q0 -54 -1 -112.5t-2.5 -117t-3.5 -113.5t-5 -101h-93 q1 21 2 53t2 69.5t2 79t1 81.5q0 65 -2 109t-5 75q-10 -14 -24 -27q-12 -11 -29 -25t-39 -26z" />
<glyph unicode="&#xbe;" horiz-adv-x="717" d="M123 727v51h471v-51h-471zM133 233q72 63 114.5 121.5t65 110t29 95t6.5 75.5h103q0 -57 -26.5 -112.5t-64 -105.5t-77.5 -92t-66 -71h12q28 0 52 -9t45.5 -20.5t42.5 -23t43 -17.5q2 50 2 104v111l92 19q0 -42 -0.5 -104.5t-3.5 -131.5q11 2 22 5.5t19 7.5l10 -31 q-11 -9 -25 -16t-28 -9q0 -40 -2 -70.5t-4 -68.5h-93q4 38 5.5 68t3.5 71q-23 6 -44.5 18.5t-43.5 25t-46.5 21.5t-54.5 9q-26 0 -45.5 -10t-25.5 -17zM143 1000q0 35 19.5 62.5t43.5 41.5l33 -16q-9 -20 -12.5 -39.5t-3.5 -40.5q0 -35 10 -59.5t27 -40.5t38 -23.5t44 -7.5 t42.5 7.5t34 24t23 43t8.5 64.5q0 30 -7 57.5t-24 48.5t-44.5 33.5t-67.5 12.5l-10 20q54 29 88 77t34 118q0 75 -67 75q-17 0 -33 -5.5t-29 -17t-20.5 -28.5t-7.5 -39q0 -20 7 -35t16 -25q11 -11 24 -20l-8 -18q-48 11 -80.5 36t-32.5 56t16.5 55.5t43.5 41.5t61 25.5 t69 8.5q28 0 54.5 -6.5t47 -19t32.5 -32t12 -46.5q0 -33 -17 -63.5t-39 -55t-43.5 -42.5t-29.5 -26q31 -5 61 -19t54 -35.5t38.5 -50.5t14.5 -65q0 -52 -19.5 -89t-50 -60t-69 -34t-76.5 -11q-46 0 -84 11.5t-65 32.5t-41.5 51t-14.5 67z" />
<glyph unicode="&#xbf;" horiz-adv-x="891" d="M123 154q0 46 22.5 85.5t56.5 79t73.5 82.5t73.5 97.5t56.5 123.5t22.5 160v21h45q1 -14 3 -28q1 -12 2 -25.5t1 -24.5q0 -113 -19.5 -193.5t-49 -139.5t-63.5 -100.5t-63.5 -76t-49 -66.5t-19.5 -71q0 -43 19.5 -78.5t51 -60.5t72 -38.5t82.5 -13.5q39 0 75.5 13 t65.5 39.5t46.5 67.5t17.5 97q0 53 -15.5 92.5t-33.5 65.5t-33 38.5t-14 12.5l24 41l15 -4.5t36.5 -15.5t46.5 -29t46.5 -46t36 -66t14.5 -89q0 -61 -28.5 -108.5t-74.5 -79.5t-102.5 -49t-113.5 -17q-64 0 -123 19.5t-104 58t-72 95t-27 131.5zM352 1085q0 19 7 36t19.5 30 t29.5 20t36 7q39 0 66 -27t27 -66q0 -19 -7 -36t-20 -29.5t-30 -19.5t-36 -7t-36 7t-29.5 19.5t-19.5 29.5t-7 36z" />
<glyph unicode="&#xc0;" horiz-adv-x="1352" d="M-31 276q0 138 30.5 271t84.5 257.5t127 238t157 210.5t176 175.5t184 134.5t179.5 86t163.5 30q84 0 134 -42.5t50 -120.5q0 -52 -20.5 -101.5t-54 -95t-76 -86t-85.5 -73t-83.5 -57t-69.5 -38.5l-30 41q25 13 57.5 36t65.5 54t64.5 68.5t56.5 79t40 86t15 88.5 q0 43 -22.5 71.5t-72.5 28.5q-59 0 -128 -30.5t-142 -86.5t-146.5 -133.5t-141.5 -171t-126.5 -200t-102 -221t-68.5 -233t-25 -235.5q0 -54 8 -99.5t26 -78t47 -50.5t72 -18q54 0 106 24.5t101 66.5t94.5 98t85.5 120t74.5 131.5t61.5 133.5q7 75 16 143.5t18 122.5 t17 89.5t14 43.5q4 7 17 16t29.5 16.5t33.5 13t29 5.5q30 0 30 -30q0 -28 -4 -65t-11 -77t-16.5 -80.5t-21.5 -74.5q-8 -109 -13 -209.5t-5 -190.5q0 -88 4.5 -139t14 -77t24.5 -33t35 -7q27 0 56 17t57 44t53.5 60t47 64.5t37 59t23.5 42.5l31 62l41 -31l-31 -62 q-8 -15 -26 -48.5t-45 -74t-61 -84t-73 -79.5t-82 -59t-88 -23q-41 0 -73 14t-54 49.5t-33.5 97t-11.5 156.5q0 37 1.5 70.5t4.5 81.5q-51 -99 -117.5 -191t-142.5 -163t-158.5 -113.5t-166.5 -42.5q-53 0 -101 19t-85 58.5t-59 101.5t-22 148zM536 1976l133 62l113 -256 l-41 -31z" />
<glyph unicode="&#xc1;" horiz-adv-x="1352" d="M-31 276q0 138 30.5 271t84.5 257.5t127 238t157 210.5t176 175.5t184 134.5t179.5 86t163.5 30q84 0 134 -42.5t50 -120.5q0 -52 -20.5 -101.5t-54 -95t-76 -86t-85.5 -73t-83.5 -57t-69.5 -38.5l-30 41q25 13 57.5 36t65.5 54t64.5 68.5t56.5 79t40 86t15 88.5 q0 43 -22.5 71.5t-72.5 28.5q-59 0 -128 -30.5t-142 -86.5t-146.5 -133.5t-141.5 -171t-126.5 -200t-102 -221t-68.5 -233t-25 -235.5q0 -54 8 -99.5t26 -78t47 -50.5t72 -18q54 0 106 24.5t101 66.5t94.5 98t85.5 120t74.5 131.5t61.5 133.5q7 75 16 143.5t18 122.5 t17 89.5t14 43.5q4 7 17 16t29.5 16.5t33.5 13t29 5.5q30 0 30 -30q0 -28 -4 -65t-11 -77t-16.5 -80.5t-21.5 -74.5q-8 -109 -13 -209.5t-5 -190.5q0 -88 4.5 -139t14 -77t24.5 -33t35 -7q27 0 56 17t57 44t53.5 60t47 64.5t37 59t23.5 42.5l31 62l41 -31l-31 -62 q-8 -15 -26 -48.5t-45 -74t-61 -84t-73 -79.5t-82 -59t-88 -23q-41 0 -73 14t-54 49.5t-33.5 97t-11.5 156.5q0 37 1.5 70.5t4.5 81.5q-51 -99 -117.5 -191t-142.5 -163t-158.5 -113.5t-166.5 -42.5q-53 0 -101 19t-85 58.5t-59 101.5t-22 148zM778 1831l193 200l104 -102 l-270 -141z" />
<glyph unicode="&#xc2;" horiz-adv-x="1352" d="M-31 276q0 138 30.5 271t84.5 257.5t127 238t157 210.5t176 175.5t184 134.5t179.5 86t163.5 30q84 0 134 -42.5t50 -120.5q0 -52 -20.5 -101.5t-54 -95t-76 -86t-85.5 -73t-83.5 -57t-69.5 -38.5l-30 41q25 13 57.5 36t65.5 54t64.5 68.5t56.5 79t40 86t15 88.5 q0 43 -22.5 71.5t-72.5 28.5q-59 0 -128 -30.5t-142 -86.5t-146.5 -133.5t-141.5 -171t-126.5 -200t-102 -221t-68.5 -233t-25 -235.5q0 -54 8 -99.5t26 -78t47 -50.5t72 -18q54 0 106 24.5t101 66.5t94.5 98t85.5 120t74.5 131.5t61.5 133.5q7 75 16 143.5t18 122.5 t17 89.5t14 43.5q4 7 17 16t29.5 16.5t33.5 13t29 5.5q30 0 30 -30q0 -28 -4 -65t-11 -77t-16.5 -80.5t-21.5 -74.5q-8 -109 -13 -209.5t-5 -190.5q0 -88 4.5 -139t14 -77t24.5 -33t35 -7q27 0 56 17t57 44t53.5 60t47 64.5t37 59t23.5 42.5l31 62l41 -31l-31 -62 q-8 -15 -26 -48.5t-45 -74t-61 -84t-73 -79.5t-82 -59t-88 -23q-41 0 -73 14t-54 49.5t-33.5 97t-11.5 156.5q0 37 1.5 70.5t4.5 81.5q-51 -99 -117.5 -191t-142.5 -163t-158.5 -113.5t-166.5 -42.5q-53 0 -101 19t-85 58.5t-59 101.5t-22 148zM682 1843l266 195l266 -195 l-30 -41l-236 123l-235 -123z" />
<glyph unicode="&#xc3;" horiz-adv-x="1352" d="M-31 276q0 138 30.5 271t84.5 257.5t127 238t157 210.5t176 175.5t184 134.5t179.5 86t163.5 30q84 0 134 -42.5t50 -120.5q0 -52 -20.5 -101.5t-54 -95t-76 -86t-85.5 -73t-83.5 -57t-69.5 -38.5l-30 41q25 13 57.5 36t65.5 54t64.5 68.5t56.5 79t40 86t15 88.5 q0 43 -22.5 71.5t-72.5 28.5q-59 0 -128 -30.5t-142 -86.5t-146.5 -133.5t-141.5 -171t-126.5 -200t-102 -221t-68.5 -233t-25 -235.5q0 -54 8 -99.5t26 -78t47 -50.5t72 -18q54 0 106 24.5t101 66.5t94.5 98t85.5 120t74.5 131.5t61.5 133.5q7 75 16 143.5t18 122.5 t17 89.5t14 43.5q4 7 17 16t29.5 16.5t33.5 13t29 5.5q30 0 30 -30q0 -28 -4 -65t-11 -77t-16.5 -80.5t-21.5 -74.5q-8 -109 -13 -209.5t-5 -190.5q0 -88 4.5 -139t14 -77t24.5 -33t35 -7q27 0 56 17t57 44t53.5 60t47 64.5t37 59t23.5 42.5l31 62l41 -31l-31 -62 q-8 -15 -26 -48.5t-45 -74t-61 -84t-73 -79.5t-82 -59t-88 -23q-41 0 -73 14t-54 49.5t-33.5 97t-11.5 156.5q0 37 1.5 70.5t4.5 81.5q-51 -99 -117.5 -191t-142.5 -163t-158.5 -113.5t-166.5 -42.5q-53 0 -101 19t-85 58.5t-59 101.5t-22 148zM657 1843q5 46 22 82 q14 31 42.5 56.5t78.5 25.5q31 0 63 -9.5t65 -21.5t65 -21.5t63 -9.5q23 0 37 9.5t22 21.5q9 13 13 31h41q-5 -46 -22 -82q-14 -31 -43 -56.5t-78 -25.5q-31 0 -63.5 9.5t-65.5 21t-65 21t-62 9.5q-23 0 -37 -10t-22 -21q-9 -13 -13 -30h-41z" />
<glyph unicode="&#xc4;" horiz-adv-x="1352" d="M-31 276q0 138 30.5 271t84.5 257.5t127 238t157 210.5t176 175.5t184 134.5t179.5 86t163.5 30q84 0 134 -42.5t50 -120.5q0 -52 -20.5 -101.5t-54 -95t-76 -86t-85.5 -73t-83.5 -57t-69.5 -38.5l-30 41q25 13 57.5 36t65.5 54t64.5 68.5t56.5 79t40 86t15 88.5 q0 43 -22.5 71.5t-72.5 28.5q-59 0 -128 -30.5t-142 -86.5t-146.5 -133.5t-141.5 -171t-126.5 -200t-102 -221t-68.5 -233t-25 -235.5q0 -54 8 -99.5t26 -78t47 -50.5t72 -18q54 0 106 24.5t101 66.5t94.5 98t85.5 120t74.5 131.5t61.5 133.5q7 75 16 143.5t18 122.5 t17 89.5t14 43.5q4 7 17 16t29.5 16.5t33.5 13t29 5.5q30 0 30 -30q0 -28 -4 -65t-11 -77t-16.5 -80.5t-21.5 -74.5q-8 -109 -13 -209.5t-5 -190.5q0 -88 4.5 -139t14 -77t24.5 -33t35 -7q27 0 56 17t57 44t53.5 60t47 64.5t37 59t23.5 42.5l31 62l41 -31l-31 -62 q-8 -15 -26 -48.5t-45 -74t-61 -84t-73 -79.5t-82 -59t-88 -23q-41 0 -73 14t-54 49.5t-33.5 97t-11.5 156.5q0 37 1.5 70.5t4.5 81.5q-51 -99 -117.5 -191t-142.5 -163t-158.5 -113.5t-166.5 -42.5q-53 0 -101 19t-85 58.5t-59 101.5t-22 148zM749 1925q0 34 24 58t58 24 q35 0 58.5 -24t23.5 -58q0 -35 -23.5 -58.5t-58.5 -23.5q-34 0 -58 23.5t-24 58.5zM1015 1925q0 34 24 58t58 24q35 0 58.5 -24t23.5 -58q0 -35 -23.5 -58.5t-58.5 -23.5q-34 0 -58 23.5t-24 58.5z" />
<glyph unicode="&#xc5;" horiz-adv-x="1352" d="M-31 276q0 138 30.5 271t84.5 257.5t127 238t157 210.5t176 175.5t184 134.5t179.5 86t163.5 30q84 0 134 -42.5t50 -120.5q0 -52 -20.5 -101.5t-54 -95t-76 -86t-85.5 -73t-83.5 -57t-69.5 -38.5l-30 41q25 13 57.5 36t65.5 54t64.5 68.5t56.5 79t40 86t15 88.5 q0 43 -22.5 71.5t-72.5 28.5q-59 0 -128 -30.5t-142 -86.5t-146.5 -133.5t-141.5 -171t-126.5 -200t-102 -221t-68.5 -233t-25 -235.5q0 -54 8 -99.5t26 -78t47 -50.5t72 -18q54 0 106 24.5t101 66.5t94.5 98t85.5 120t74.5 131.5t61.5 133.5q7 75 16 143.5t18 122.5 t17 89.5t14 43.5q4 7 17 16t29.5 16.5t33.5 13t29 5.5q30 0 30 -30q0 -28 -4 -65t-11 -77t-16.5 -80.5t-21.5 -74.5q-8 -109 -13 -209.5t-5 -190.5q0 -88 4.5 -139t14 -77t24.5 -33t35 -7q27 0 56 17t57 44t53.5 60t47 64.5t37 59t23.5 42.5l31 62l41 -31l-31 -62 q-8 -15 -26 -48.5t-45 -74t-61 -84t-73 -79.5t-82 -59t-88 -23q-41 0 -73 14t-54 49.5t-33.5 97t-11.5 156.5q0 37 1.5 70.5t4.5 81.5q-51 -99 -117.5 -191t-142.5 -163t-158.5 -113.5t-166.5 -42.5q-53 0 -101 19t-85 58.5t-59 101.5t-22 148zM768 1943q0 34 13 64.5 t35.5 53t52 35.5t63.5 13t63.5 -13t52 -35.5t35.5 -53t13 -64.5q0 -33 -13 -62.5t-35.5 -51t-52 -34.5t-63.5 -13t-63.5 13t-52 34.5t-35.5 51t-13 62.5zM829 1945q0 -21 8.5 -39.5t22.5 -32.5t32.5 -22t39.5 -8t39.5 8t32.5 22t22 32.5t8 39.5t-8 39.5t-22 33t-32.5 22.5 t-39.5 8t-39.5 -8t-32.5 -22.5t-22.5 -33t-8.5 -39.5z" />
<glyph unicode="&#xc6;" horiz-adv-x="1997" d="M41 498q0 125 22 261t64 267t102 249.5t136 208t167 142.5t195 53q41 0 75 -9.5t61 -25t48.5 -34.5t36.5 -37q62 54 142 79t161 25q65 0 126 -15.5t107.5 -45.5t74.5 -73.5t28 -98.5q0 -39 -13.5 -70t-36 -52.5t-52.5 -32.5t-64 -11q-23 0 -47 5t-47 17l19 41 q20 -9 40.5 -14.5t38.5 -5.5q48 0 79.5 32t31.5 91q0 40 -20 73.5t-54 57t-77.5 36.5t-90.5 13q-54 0 -108 -19t-97 -60t-69.5 -106t-26.5 -157q0 -51 12 -100.5t35.5 -91t58.5 -72t81 -45.5q43 11 77 15.5t54 4.5q34 0 48.5 -11t14.5 -28q0 -8 -3 -15.5t-11 -13.5 t-22.5 -10t-37.5 -4q-29 0 -56.5 2t-53.5 7q-75 -21 -131 -69t-94 -113t-57 -141.5t-19 -154.5q0 -84 23 -164t69 -141.5t115.5 -99t163.5 -37.5q100 0 175 36t128 95q-48 12 -100 42t-95 74.5t-70.5 101t-27.5 122.5q0 58 20 108.5t55 88t83 59t104 21.5q52 0 100.5 -19 t85.5 -56t59.5 -91.5t22.5 -124.5q0 -36 -7.5 -74t-21 -75t-31 -70.5t-38.5 -61.5q60 8 104.5 34t78.5 62t58 77.5t44 80.5l10 21l41 -31l-10 -21q-31 -62 -69 -113t-84 -87t-101 -55.5t-119 -20.5q-78 -78 -185.5 -126t-240.5 -48q-90 0 -168 23.5t-141 65t-109 99.5 t-72 127q-29 -51 -66.5 -101t-84 -90.5t-102 -65.5t-119.5 -25q-86 0 -147.5 40t-101 109.5t-58.5 164t-19 202.5zM236 532q0 -89 11.5 -166t35 -133.5t59.5 -89t86 -32.5q37 0 75.5 16.5t75.5 47t72 73t64 94.5q-5 25 -6.5 49.5t-1.5 48.5q0 114 35.5 198.5t91 144.5 t124.5 99.5t136 63.5q-64 24 -113.5 61t-83 82.5t-51 97t-17.5 103.5q0 79 23 140.5t63 107.5q-27 31 -72.5 56.5t-115.5 25.5q-77 0 -143 -49.5t-120.5 -133t-97 -193.5t-71.5 -231t-44 -245t-15 -236zM1331 471q0 -60 25.5 -110.5t65 -89t86.5 -63t91 -32.5q15 25 28 56.5 t22.5 66t14.5 70.5t5 71q0 62 -14.5 107.5t-38.5 75t-55 43.5t-64 14q-35 0 -65 -15t-52.5 -42.5t-35.5 -66t-13 -85.5z" />
<glyph unicode="&#xc7;" horiz-adv-x="1116" d="M-11 709q0 169 28.5 306.5t77 245t113 186.5t135.5 130.5t145 76.5t142 25q89 0 164 -30.5t129 -86t84.5 -135t30.5 -176.5q0 -93 -28.5 -175t-76 -143.5t-109 -97.5t-128.5 -36q-45 0 -84 16t-68 45t-46 71t-17 93q0 49 15 94.5t38 84t50.5 68t53.5 46.5l27 -27 q-21 -24 -39.5 -51.5t-32.5 -59t-22 -67.5t-8 -78q0 -43 10.5 -77t29 -58t42.5 -36.5t51 -12.5q37 0 74 27.5t66 81t47 131.5t18 180q0 92 -20.5 159.5t-56.5 111.5t-85 65.5t-105 21.5q-40 0 -91 -17.5t-104.5 -57.5t-104.5 -105.5t-91.5 -162t-65 -226.5t-24.5 -299 q0 -180 41 -314t108.5 -223t154 -133.5t177.5 -44.5q65 0 128.5 24t123.5 72t115.5 120t103.5 169l11 21l41 -31l-11 -21q-52 -105 -114.5 -186t-132.5 -137.5t-145.5 -88t-154.5 -37.5v-43q113 0 167.5 -31t54.5 -82q0 -30 -20.5 -65.5t-62 -70t-102.5 -65.5t-142 -53 l-19 63q111 40 159.5 73.5t48.5 53.5q0 23 -40.5 36.5t-112.5 13.5v171q-104 7 -201 56.5t-173 143.5t-121.5 233t-45.5 325z" />
<glyph unicode="&#xc8;" horiz-adv-x="1269" d="M-21 440q0 114 35.5 198.5t91.5 144.5t124.5 99.5t135.5 63.5q-64 24 -113 61t-82.5 82.5t-51 97t-17.5 103.5q0 94 39 166.5t101.5 122t141 75t158.5 25.5q66 0 126.5 -16t105.5 -45q24 5 50.5 7.5t55.5 2.5v-41q-17 0 -32 -1t-29 -3q29 -28 45 -62.5t16 -76.5 q0 -39 -12.5 -71t-35 -55t-52.5 -35.5t-64 -12.5q-38 0 -67.5 12t-49.5 32t-31 47t-11 56q0 25 8.5 51t26 50t45 45t65.5 36q-38 16 -79.5 22.5t-70.5 6.5q-70 0 -123.5 -24.5t-89.5 -69.5t-54.5 -109t-18.5 -143q0 -51 12 -100.5t35 -91t58 -72t81 -45.5q43 11 77 15.5 t54 4.5q34 0 49 -11t15 -28q0 -8 -3 -15.5t-11 -13.5t-22.5 -10t-37.5 -4q-29 0 -57 2t-54 7q-66 -17 -121 -57t-94.5 -101t-61.5 -142t-22 -180q0 -114 31 -197t83 -137t118 -80t137 -26q100 0 175 36t128 95q-64 12 -117.5 42t-92.5 74.5t-61 101t-22 122.5q0 65 23 119.5 t62 94t90.5 61.5t107.5 22q52 0 100.5 -19t85.5 -55.5t59.5 -91t22.5 -125.5q0 -72 -31 -151t-88 -150q60 8 105 34t78.5 62t58 77.5t43.5 80.5l10 21l41 -31l-10 -21q-31 -62 -69 -113t-84 -87t-101 -55.5t-119 -20.5q-77 -78 -185 -126t-241 -48q-117 0 -213 39 t-164.5 106t-106.5 156t-38 190zM481 1976l133 62l113 -256l-41 -31zM604 471q0 -60 19.5 -110.5t55 -89t85 -63t108.5 -32.5q46 66 68 141t22 144q0 62 -14.5 107t-38.5 74.5t-55 43.5t-64 14q-35 0 -68 -15.5t-59.5 -44.5t-42.5 -72t-16 -97zM608 1419q0 -40 28.5 -69 t79.5 -29q54 0 83.5 34.5t29.5 88.5q0 43 -21 74t-53 53q-39 -11 -67 -28t-45.5 -37.5t-26 -43t-8.5 -43.5z" />
<glyph unicode="&#xc9;" horiz-adv-x="1269" d="M-21 440q0 114 35.5 198.5t91.5 144.5t124.5 99.5t135.5 63.5q-64 24 -113 61t-82.5 82.5t-51 97t-17.5 103.5q0 94 39 166.5t101.5 122t141 75t158.5 25.5q66 0 126.5 -16t105.5 -45q24 5 50.5 7.5t55.5 2.5v-41q-17 0 -32 -1t-29 -3q29 -28 45 -62.5t16 -76.5 q0 -39 -12.5 -71t-35 -55t-52.5 -35.5t-64 -12.5q-38 0 -67.5 12t-49.5 32t-31 47t-11 56q0 25 8.5 51t26 50t45 45t65.5 36q-38 16 -79.5 22.5t-70.5 6.5q-70 0 -123.5 -24.5t-89.5 -69.5t-54.5 -109t-18.5 -143q0 -51 12 -100.5t35 -91t58 -72t81 -45.5q43 11 77 15.5 t54 4.5q34 0 49 -11t15 -28q0 -8 -3 -15.5t-11 -13.5t-22.5 -10t-37.5 -4q-29 0 -57 2t-54 7q-66 -17 -121 -57t-94.5 -101t-61.5 -142t-22 -180q0 -114 31 -197t83 -137t118 -80t137 -26q100 0 175 36t128 95q-64 12 -117.5 42t-92.5 74.5t-61 101t-22 122.5q0 65 23 119.5 t62 94t90.5 61.5t107.5 22q52 0 100.5 -19t85.5 -55.5t59.5 -91t22.5 -125.5q0 -72 -31 -151t-88 -150q60 8 105 34t78.5 62t58 77.5t43.5 80.5l10 21l41 -31l-10 -21q-31 -62 -69 -113t-84 -87t-101 -55.5t-119 -20.5q-77 -78 -185 -126t-241 -48q-117 0 -213 39 t-164.5 106t-106.5 156t-38 190zM475 1831l193 200l104 -102l-270 -141zM604 471q0 -60 19.5 -110.5t55 -89t85 -63t108.5 -32.5q46 66 68 141t22 144q0 62 -14.5 107t-38.5 74.5t-55 43.5t-64 14q-35 0 -68 -15.5t-59.5 -44.5t-42.5 -72t-16 -97zM608 1419q0 -40 28.5 -69 t79.5 -29q54 0 83.5 34.5t29.5 88.5q0 43 -21 74t-53 53q-39 -11 -67 -28t-45.5 -37.5t-26 -43t-8.5 -43.5z" />
<glyph unicode="&#xca;" horiz-adv-x="1269" d="M-21 440q0 114 35.5 198.5t91.5 144.5t124.5 99.5t135.5 63.5q-64 24 -113 61t-82.5 82.5t-51 97t-17.5 103.5q0 94 39 166.5t101.5 122t141 75t158.5 25.5q66 0 126.5 -16t105.5 -45q24 5 50.5 7.5t55.5 2.5v-41q-17 0 -32 -1t-29 -3q29 -28 45 -62.5t16 -76.5 q0 -39 -12.5 -71t-35 -55t-52.5 -35.5t-64 -12.5q-38 0 -67.5 12t-49.5 32t-31 47t-11 56q0 25 8.5 51t26 50t45 45t65.5 36q-38 16 -79.5 22.5t-70.5 6.5q-70 0 -123.5 -24.5t-89.5 -69.5t-54.5 -109t-18.5 -143q0 -51 12 -100.5t35 -91t58 -72t81 -45.5q43 11 77 15.5 t54 4.5q34 0 49 -11t15 -28q0 -8 -3 -15.5t-11 -13.5t-22.5 -10t-37.5 -4q-29 0 -57 2t-54 7q-66 -17 -121 -57t-94.5 -101t-61.5 -142t-22 -180q0 -114 31 -197t83 -137t118 -80t137 -26q100 0 175 36t128 95q-64 12 -117.5 42t-92.5 74.5t-61 101t-22 122.5q0 65 23 119.5 t62 94t90.5 61.5t107.5 22q52 0 100.5 -19t85.5 -55.5t59.5 -91t22.5 -125.5q0 -72 -31 -151t-88 -150q60 8 105 34t78.5 62t58 77.5t43.5 80.5l10 21l41 -31l-10 -21q-31 -62 -69 -113t-84 -87t-101 -55.5t-119 -20.5q-77 -78 -185 -126t-241 -48q-117 0 -213 39 t-164.5 106t-106.5 156t-38 190zM264 1800l266 195l266 -195l-30 -41l-236 123l-235 -123zM604 471q0 -60 19.5 -110.5t55 -89t85 -63t108.5 -32.5q46 66 68 141t22 144q0 62 -14.5 107t-38.5 74.5t-55 43.5t-64 14q-35 0 -68 -15.5t-59.5 -44.5t-42.5 -72t-16 -97z M608 1419q0 -40 28.5 -69t79.5 -29q54 0 83.5 34.5t29.5 88.5q0 43 -21 74t-53 53q-39 -11 -67 -28t-45.5 -37.5t-26 -43t-8.5 -43.5z" />
<glyph unicode="&#xcb;" horiz-adv-x="1269" d="M-21 440q0 114 35.5 198.5t91.5 144.5t124.5 99.5t135.5 63.5q-64 24 -113 61t-82.5 82.5t-51 97t-17.5 103.5q0 94 39 166.5t101.5 122t141 75t158.5 25.5q66 0 126.5 -16t105.5 -45q24 5 50.5 7.5t55.5 2.5v-41q-17 0 -32 -1t-29 -3q29 -28 45 -62.5t16 -76.5 q0 -39 -12.5 -71t-35 -55t-52.5 -35.5t-64 -12.5q-38 0 -67.5 12t-49.5 32t-31 47t-11 56q0 25 8.5 51t26 50t45 45t65.5 36q-38 16 -79.5 22.5t-70.5 6.5q-70 0 -123.5 -24.5t-89.5 -69.5t-54.5 -109t-18.5 -143q0 -51 12 -100.5t35 -91t58 -72t81 -45.5q43 11 77 15.5 t54 4.5q34 0 49 -11t15 -28q0 -8 -3 -15.5t-11 -13.5t-22.5 -10t-37.5 -4q-29 0 -57 2t-54 7q-66 -17 -121 -57t-94.5 -101t-61.5 -142t-22 -180q0 -114 31 -197t83 -137t118 -80t137 -26q100 0 175 36t128 95q-64 12 -117.5 42t-92.5 74.5t-61 101t-22 122.5q0 65 23 119.5 t62 94t90.5 61.5t107.5 22q52 0 100.5 -19t85.5 -55.5t59.5 -91t22.5 -125.5q0 -72 -31 -151t-88 -150q60 8 105 34t78.5 62t58 77.5t43.5 80.5l10 21l41 -31l-10 -21q-31 -62 -69 -113t-84 -87t-101 -55.5t-119 -20.5q-77 -78 -185 -126t-241 -48q-117 0 -213 39 t-164.5 106t-106.5 156t-38 190zM311 1925q0 34 24 58t58 24q35 0 58.5 -24t23.5 -58q0 -35 -23.5 -58.5t-58.5 -23.5q-34 0 -58 23.5t-24 58.5zM577 1925q0 34 24 58t58 24q35 0 58.5 -24t23.5 -58q0 -35 -23.5 -58.5t-58.5 -23.5q-34 0 -58 23.5t-24 58.5zM604 471 q0 -60 19.5 -110.5t55 -89t85 -63t108.5 -32.5q46 66 68 141t22 144q0 62 -14.5 107t-38.5 74.5t-55 43.5t-64 14q-35 0 -68 -15.5t-59.5 -44.5t-42.5 -72t-16 -97zM608 1419q0 -40 28.5 -69t79.5 -29q54 0 83.5 34.5t29.5 88.5q0 43 -21 74t-53 53q-39 -11 -67 -28 t-45.5 -37.5t-26 -43t-8.5 -43.5z" />
<glyph unicode="&#xcc;" horiz-adv-x="1004" d="M-91 276q0 54 17.5 97t45.5 76.5t61.5 57.5t65.5 40t58 25t39 12l20 -41q-23 -12 -51.5 -32.5t-53.5 -52t-42 -76.5t-17 -106q0 -65 22 -116.5t61.5 -87t94 -54t119.5 -18.5q73 0 133.5 20t103.5 67t67 125t24 194q0 27 -1.5 52.5t-3.5 52.5t-5 57.5t-6 68.5 q-41 -16 -87 -24.5t-102 -8.5q-62 0 -119 19.5t-101 57.5t-70.5 95.5t-26.5 134.5q0 49 11.5 94.5t40.5 95.5t77.5 108.5t122.5 133.5t175.5 170t237.5 218l41 -31q-22 -30 -39 -66t-29 -83t-18 -108.5t-6 -142.5q0 -121 9 -245.5t20 -243.5q20 28 35.5 59t27.5 62l41 -21 q-20 -48 -43.5 -90t-54.5 -78q5 -51 10 -93.5t8.5 -79.5t6 -71t2.5 -69q0 -108 -19.5 -192t-75.5 -146q-55 -63 -156.5 -103t-240.5 -40q-86 0 -164 24t-137 67t-94 103t-35 133zM278 932q0 -146 65 -211.5t180 -65.5q38 0 71.5 7.5t62.5 21.5q-7 69 -14.5 138.5t-13.5 134 t-9.5 121.5t-3.5 100t4.5 94t12.5 99.5t19 90t25 64.5q-78 -75 -138 -135t-104.5 -110t-74.5 -92.5t-48 -83.5t-26 -83t-8 -90zM315 1976l133 62l113 -256l-41 -31z" />
<glyph unicode="&#xcd;" horiz-adv-x="1004" d="M-91 276q0 54 17.5 97t45.5 76.5t61.5 57.5t65.5 40t58 25t39 12l20 -41q-23 -12 -51.5 -32.5t-53.5 -52t-42 -76.5t-17 -106q0 -65 22 -116.5t61.5 -87t94 -54t119.5 -18.5q73 0 133.5 20t103.5 67t67 125t24 194q0 27 -1.5 52.5t-3.5 52.5t-5 57.5t-6 68.5 q-41 -16 -87 -24.5t-102 -8.5q-62 0 -119 19.5t-101 57.5t-70.5 95.5t-26.5 134.5q0 49 11.5 94.5t40.5 95.5t77.5 108.5t122.5 133.5t175.5 170t237.5 218l41 -31q-22 -30 -39 -66t-29 -83t-18 -108.5t-6 -142.5q0 -121 9 -245.5t20 -243.5q20 28 35.5 59t27.5 62l41 -21 q-20 -48 -43.5 -90t-54.5 -78q5 -51 10 -93.5t8.5 -79.5t6 -71t2.5 -69q0 -108 -19.5 -192t-75.5 -146q-55 -63 -156.5 -103t-240.5 -40q-86 0 -164 24t-137 67t-94 103t-35 133zM278 932q0 -146 65 -211.5t180 -65.5q38 0 71.5 7.5t62.5 21.5q-7 69 -14.5 138.5t-13.5 134 t-9.5 121.5t-3.5 100t4.5 94t12.5 99.5t19 90t25 64.5q-78 -75 -138 -135t-104.5 -110t-74.5 -92.5t-48 -83.5t-26 -83t-8 -90zM474 1831l193 200l104 -102l-270 -141z" />
<glyph unicode="&#xce;" horiz-adv-x="1010" d="M-91 276q0 54 17.5 97t45.5 76.5t61.5 57.5t65.5 40t58 25t39 12l20 -41q-23 -12 -51.5 -32.5t-53.5 -52t-42 -76.5t-17 -106q0 -65 22 -116.5t61.5 -87t94 -54t119.5 -18.5q73 0 133.5 20t103.5 67t67 125t24 194q0 27 -1.5 52.5t-3.5 52.5t-5 57.5t-6 68.5 q-41 -16 -87 -24.5t-102 -8.5q-62 0 -119 19.5t-101 57.5t-70.5 95.5t-26.5 134.5q0 49 11.5 94.5t40.5 95.5t77.5 108.5t122.5 133.5t175.5 170t237.5 218l41 -31q-22 -30 -39 -66t-29 -83t-18 -108.5t-6 -142.5q0 -121 9 -245.5t20 -243.5q20 28 35.5 59t27.5 62l41 -21 q-20 -48 -43.5 -90t-54.5 -78q5 -51 10 -93.5t8.5 -79.5t6 -71t2.5 -69q0 -108 -19.5 -192t-75.5 -146q-55 -63 -156.5 -103t-240.5 -40q-86 0 -164 24t-137 67t-94 103t-35 133zM278 932q0 -146 65 -211.5t180 -65.5q38 0 71.5 7.5t62.5 21.5q-7 69 -14.5 138.5t-13.5 134 t-9.5 121.5t-3.5 100t4.5 94t12.5 99.5t19 90t25 64.5q-78 -75 -138 -135t-104.5 -110t-74.5 -92.5t-48 -83.5t-26 -83t-8 -90zM376 1843l266 195l266 -195l-30 -41l-236 123l-235 -123z" />
<glyph unicode="&#xcf;" horiz-adv-x="1021" d="M-91 276q0 54 17.5 97t45.5 76.5t61.5 57.5t65.5 40t58 25t39 12l20 -41q-23 -12 -51.5 -32.5t-53.5 -52t-42 -76.5t-17 -106q0 -65 22 -116.5t61.5 -87t94 -54t119.5 -18.5q73 0 133.5 20t103.5 67t67 125t24 194q0 27 -1.5 52.5t-3.5 52.5t-5 57.5t-6 68.5 q-41 -16 -87 -24.5t-102 -8.5q-62 0 -119 19.5t-101 57.5t-70.5 95.5t-26.5 134.5q0 49 11.5 94.5t40.5 95.5t77.5 108.5t122.5 133.5t175.5 170t237.5 218l41 -31q-22 -30 -39 -66t-29 -83t-18 -108.5t-6 -142.5q0 -121 9 -245.5t20 -243.5q20 28 35.5 59t27.5 62l41 -21 q-20 -48 -43.5 -90t-54.5 -78q5 -51 10 -93.5t8.5 -79.5t6 -71t2.5 -69q0 -108 -19.5 -192t-75.5 -146q-55 -63 -156.5 -103t-240.5 -40q-86 0 -164 24t-137 67t-94 103t-35 133zM278 932q0 -146 65 -211.5t180 -65.5q38 0 71.5 7.5t62.5 21.5q-7 69 -14.5 138.5t-13.5 134 t-9.5 121.5t-3.5 100t4.5 94t12.5 99.5t19 90t25 64.5q-78 -75 -138 -135t-104.5 -110t-74.5 -92.5t-48 -83.5t-26 -83t-8 -90zM489 1925q0 34 24 58t58 24q35 0 58.5 -24t23.5 -58q0 -35 -23.5 -58.5t-58.5 -23.5q-34 0 -58 23.5t-24 58.5zM755 1925q0 34 24 58t58 24 q35 0 58.5 -24t23.5 -58q0 -35 -23.5 -58.5t-58.5 -23.5q-34 0 -58 23.5t-24 58.5z" />
<glyph unicode="&#xd0;" horiz-adv-x="1554" d="M-220 20q0 27 14.5 48t48.5 35.5t88.5 22t135.5 7.5q63 0 124 -6.5t121 -15.5l27 28q19 23 30 58.5t16.5 90t7 131.5t1.5 185h-163v82h163q0 117 2 199.5t8 142.5t18 102.5t32.5 79t51 71.5t73.5 81l51 -45q-22 -21 -34.5 -51.5t-18.5 -72t-7.5 -94t-1.5 -118.5v-295h154 v-82h-154v-186q0 -65 -14 -113.5t-37.5 -86.5t-53.5 -68t-62 -56q59 -12 115 -24t108.5 -22t101 -16.5t92.5 -6.5q82 0 146 36t111 98.5t79.5 147t52.5 181.5t28.5 203t8.5 210q0 165 -42 296t-124.5 222.5t-205 140t-283.5 48.5q-116 0 -202 -18.5t-147.5 -49t-100.5 -69.5 t-61.5 -80.5t-31 -82.5t-8.5 -75q0 -40 6.5 -78.5t26 -68.5t55.5 -48t96 -18q20 0 33 2.5t22 6.5q10 4 17 9l12 -59q-15 -11 -50.5 -19t-76.5 -8q-60 0 -111.5 21t-89.5 57.5t-59.5 84.5t-21.5 102q0 93 49 176.5t137 147t209.5 101t265.5 37.5q198 0 358.5 -63.5 t274.5 -176.5t176 -269t62 -341q0 -119 -23 -230t-66 -209t-105.5 -179t-141 -139.5t-172 -90.5t-199.5 -32q-108 0 -218 20t-218 43q-37 -21 -76 -36.5t-78 -26t-76.5 -16t-70.5 -5.5q-100 0 -152.5 23t-52.5 69zM-159 20q0 -20 33 -30t111 -10q60 0 114.5 13t102.5 38 q-66 12 -131 21t-127 9q-16 0 -34 -1t-33.5 -5t-25.5 -12t-10 -23z" />
<glyph unicode="&#xd1;" horiz-adv-x="1483" d="M-71 256q0 93 45 180t114 164l39 -20q-20 -30 -37.5 -64t-31 -69.5t-21.5 -72.5t-8 -73q0 -46 14.5 -83.5t38.5 -64t56.5 -41t68.5 -14.5q47 0 95.5 27.5t88 88t64.5 157t25 233.5q0 79 -9.5 153.5t-27.5 139.5q-109 155 -179.5 268t-111 193.5t-56.5 132.5t-16 86 q0 54 25.5 78t56.5 24q48 0 93.5 -45.5t86.5 -123t76 -180t64 -216.5q71 -92 151 -193t165.5 -205t174 -208.5t176.5 -204.5q-63 277 -95 498t-32 389q0 121 23.5 212.5t63.5 153t94 92.5t116 31q46 0 80.5 -16t58 -43t35 -62t11.5 -73q0 -51 -10.5 -95t-22.5 -77 q-15 -39 -33 -72l-39 25q4 9 11.5 26.5t14.5 43t12 58t5 70.5q0 62 -28 97.5t-74 35.5q-60 0 -101.5 -40.5t-67 -112t-37 -168t-11.5 -207.5q0 -104 9 -216.5t24.5 -225t36 -220.5t44.5 -202l144 -154l-121 -114q-59 57 -143.5 145t-182.5 199t-204.5 240t-209.5 267 q10 -57 13.5 -120.5t3.5 -139.5q0 -139 -33 -238.5t-85.5 -164t-117 -95t-127.5 -30.5q-49 0 -93.5 17t-78 50t-53.5 80.5t-20 108.5zM142 1608q0 -10 17.5 -41.5t50 -80t78.5 -112.5t103 -139q-25 79 -54.5 150.5t-59.5 125.5t-60 85.5t-55 31.5q-20 0 -20 -20zM498 1843 q5 46 22 82q14 31 42.5 56.5t78.5 25.5q31 0 63 -9.5t65 -21.5t65 -21.5t63 -9.5q23 0 37 9.5t22 21.5q9 13 13 31h41q-5 -46 -22 -82q-14 -31 -43 -56.5t-78 -25.5q-31 0 -63.5 9.5t-65.5 21t-65 21t-62 9.5q-23 0 -37 -10t-22 -21q-9 -13 -13 -30h-41z" />
<glyph unicode="&#xd2;" horiz-adv-x="1432" d="M-11 809q0 113 20.5 210t54.5 179t77.5 149t90.5 120t93 92t85 65l43 -29q-69 -56 -124.5 -138t-95 -184t-60.5 -219.5t-21 -244.5q0 -215 42.5 -368t112.5 -251t160.5 -144t186.5 -46q104 0 193 46t154.5 144t103 251t37.5 368q0 206 -31.5 358t-86 251.5t-127.5 148.5 t-155 49q-64 0 -115 -29t-89.5 -79.5t-66.5 -118t-45.5 -144.5t-25.5 -158.5t-8 -160.5q0 -94 6 -158.5t14 -104.5q9 -47 21 -75l-59 -15q-14 16 -32.5 45t-35.5 76t-29 114t-12 159q0 73 13 154.5t40.5 160.5t69 151t98.5 126.5t129.5 87t161.5 32.5q91 0 166 -30.5 t134 -85t103.5 -129.5t73.5 -164t43.5 -188.5t14.5 -202.5q0 -114 -18.5 -227t-55 -216.5t-91.5 -192.5t-128 -154t-164.5 -102.5t-200.5 -37.5q-102 0 -191 31.5t-163 89t-132 137t-97.5 175t-60.5 204t-21 223.5zM466 1976l133 62l113 -256l-41 -31z" />
<glyph unicode="&#xd3;" horiz-adv-x="1432" d="M-11 809q0 113 20.5 210t54.5 179t77.5 149t90.5 120t93 92t85 65l43 -29q-69 -56 -124.5 -138t-95 -184t-60.5 -219.5t-21 -244.5q0 -215 42.5 -368t112.5 -251t160.5 -144t186.5 -46q104 0 193 46t154.5 144t103 251t37.5 368q0 206 -31.5 358t-86 251.5t-127.5 148.5 t-155 49q-64 0 -115 -29t-89.5 -79.5t-66.5 -118t-45.5 -144.5t-25.5 -158.5t-8 -160.5q0 -94 6 -158.5t14 -104.5q9 -47 21 -75l-59 -15q-14 16 -32.5 45t-35.5 76t-29 114t-12 159q0 73 13 154.5t40.5 160.5t69 151t98.5 126.5t129.5 87t161.5 32.5q91 0 166 -30.5 t134 -85t103.5 -129.5t73.5 -164t43.5 -188.5t14.5 -202.5q0 -114 -18.5 -227t-55 -216.5t-91.5 -192.5t-128 -154t-164.5 -102.5t-200.5 -37.5q-102 0 -191 31.5t-163 89t-132 137t-97.5 175t-60.5 204t-21 223.5zM521 1831l193 200l104 -102l-270 -141z" />
<glyph unicode="&#xd4;" horiz-adv-x="1432" d="M-11 809q0 113 20.5 210t54.5 179t77.5 149t90.5 120t93 92t85 65l43 -29q-69 -56 -124.5 -138t-95 -184t-60.5 -219.5t-21 -244.5q0 -215 42.5 -368t112.5 -251t160.5 -144t186.5 -46q104 0 193 46t154.5 144t103 251t37.5 368q0 206 -31.5 358t-86 251.5t-127.5 148.5 t-155 49q-64 0 -115 -29t-89.5 -79.5t-66.5 -118t-45.5 -144.5t-25.5 -158.5t-8 -160.5q0 -94 6 -158.5t14 -104.5q9 -47 21 -75l-59 -15q-14 16 -32.5 45t-35.5 76t-29 114t-12 159q0 73 13 154.5t40.5 160.5t69 151t98.5 126.5t129.5 87t161.5 32.5q91 0 166 -30.5 t134 -85t103.5 -129.5t73.5 -164t43.5 -188.5t14.5 -202.5q0 -114 -18.5 -227t-55 -216.5t-91.5 -192.5t-128 -154t-164.5 -102.5t-200.5 -37.5q-102 0 -191 31.5t-163 89t-132 137t-97.5 175t-60.5 204t-21 223.5zM425 1843l266 195l266 -195l-30 -41l-236 123l-235 -123z " />
<glyph unicode="&#xd5;" horiz-adv-x="1432" d="M-11 809q0 113 20.5 210t54.5 179t77.5 149t90.5 120t93 92t85 65l43 -29q-69 -56 -124.5 -138t-95 -184t-60.5 -219.5t-21 -244.5q0 -215 42.5 -368t112.5 -251t160.5 -144t186.5 -46q104 0 193 46t154.5 144t103 251t37.5 368q0 206 -31.5 358t-86 251.5t-127.5 148.5 t-155 49q-64 0 -115 -29t-89.5 -79.5t-66.5 -118t-45.5 -144.5t-25.5 -158.5t-8 -160.5q0 -94 6 -158.5t14 -104.5q9 -47 21 -75l-59 -15q-14 16 -32.5 45t-35.5 76t-29 114t-12 159q0 73 13 154.5t40.5 160.5t69 151t98.5 126.5t129.5 87t161.5 32.5q91 0 166 -30.5 t134 -85t103.5 -129.5t73.5 -164t43.5 -188.5t14.5 -202.5q0 -114 -18.5 -227t-55 -216.5t-91.5 -192.5t-128 -154t-164.5 -102.5t-200.5 -37.5q-102 0 -191 31.5t-163 89t-132 137t-97.5 175t-60.5 204t-21 223.5zM423 1843q5 46 22 82q14 31 42.5 56.5t78.5 25.5 q31 0 63 -9.5t65 -21.5t65 -21.5t63 -9.5q23 0 37 9.5t22 21.5q9 13 13 31h41q-5 -46 -22 -82q-14 -31 -43 -56.5t-78 -25.5q-31 0 -63.5 9.5t-65.5 21t-65 21t-62 9.5q-23 0 -37 -10t-22 -21q-9 -13 -13 -30h-41z" />
<glyph unicode="&#xd6;" horiz-adv-x="1432" d="M-11 809q0 113 20.5 210t54.5 179t77.5 149t90.5 120t93 92t85 65l43 -29q-69 -56 -124.5 -138t-95 -184t-60.5 -219.5t-21 -244.5q0 -215 42.5 -368t112.5 -251t160.5 -144t186.5 -46q104 0 193 46t154.5 144t103 251t37.5 368q0 206 -31.5 358t-86 251.5t-127.5 148.5 t-155 49q-64 0 -115 -29t-89.5 -79.5t-66.5 -118t-45.5 -144.5t-25.5 -158.5t-8 -160.5q0 -94 6 -158.5t14 -104.5q9 -47 21 -75l-59 -15q-14 16 -32.5 45t-35.5 76t-29 114t-12 159q0 73 13 154.5t40.5 160.5t69 151t98.5 126.5t129.5 87t161.5 32.5q91 0 166 -30.5 t134 -85t103.5 -129.5t73.5 -164t43.5 -188.5t14.5 -202.5q0 -114 -18.5 -227t-55 -216.5t-91.5 -192.5t-128 -154t-164.5 -102.5t-200.5 -37.5q-102 0 -191 31.5t-163 89t-132 137t-97.5 175t-60.5 204t-21 223.5zM456 1925q0 34 24 58t58 24q35 0 58.5 -24t23.5 -58 q0 -35 -23.5 -58.5t-58.5 -23.5q-34 0 -58 23.5t-24 58.5zM722 1925q0 34 24 58t58 24q35 0 58.5 -24t23.5 -58q0 -35 -23.5 -58.5t-58.5 -23.5q-34 0 -58 23.5t-24 58.5z" />
<glyph unicode="&#xd7;" horiz-adv-x="848" d="M123 330l242 241l-242 244l57 59l244 -243l244 243l57 -59l-244 -244l244 -241l-57 -60l-244 244l-244 -244z" />
<glyph unicode="&#xd8;" horiz-adv-x="1432" d="M-11 809q0 113 20.5 210t54.5 179t77.5 149t90.5 120t93 92t85 65l43 -29q-69 -56 -124.5 -138t-95 -184t-60.5 -219.5t-21 -244.5q0 -154 20 -274t56 -209t86 -149.5t109 -94.5l407 1517q-43 17 -88 17q-64 0 -115 -29t-89.5 -79.5t-66.5 -118t-45.5 -144.5 t-25.5 -158.5t-8 -160.5q0 -94 6 -158.5t14 -104.5q9 -47 21 -75l-59 -15q-14 16 -32.5 45t-35.5 76t-29 114t-12 159q0 73 13 154.5t40.5 160.5t69 151t98.5 126.5t129.5 87t161.5 32.5q36 0 74 -6l71 264l91 -24l-72 -264q94 -37 163.5 -113.5t115.5 -179.5t69 -225.5 t23 -251.5q0 -104 -17.5 -214t-53 -214t-88.5 -196t-124.5 -161.5t-161 -110t-196.5 -40.5q-44 0 -88.5 7t-92.5 21l-71 -268l-93 23l76 278q-98 48 -174.5 129t-129.5 186.5t-81 230.5t-28 259zM509 39q21 -9 47 -15q21 -5 49 -9.5t59 -4.5q111 0 200 55t150.5 158 t94.5 251t33 335q0 147 -17 267t-47 212.5t-72 158t-92 105.5z" />
<glyph unicode="&#xd9;" horiz-adv-x="1551" d="M-221 911q0 90 30.5 182t82.5 177.5t122 160t148.5 129.5t161.5 87t162 32q48 0 87.5 -15.5t68 -46t44 -76.5t15.5 -107q0 -74 -21.5 -167t-53 -195.5t-69 -211t-69 -215t-53 -206t-21.5 -183.5q0 -82 21.5 -132.5t52.5 -78t66.5 -36.5t64.5 -9q59 0 114 28t106 78 t96.5 119t86.5 150v47q0 125 9.5 266.5t27.5 281.5t44 268t58.5 226t71.5 156.5t82 58.5q31 0 46 -32t15 -101q0 -71 -12.5 -180t-37.5 -239.5t-63 -276t-89 -289.5v-63q0 -189 29.5 -287t101.5 -98q28 0 53 18t51 56t57.5 98.5t73.5 144.5l11 21l40 -31l-10 -21 q-50 -100 -89 -174.5t-76.5 -124.5t-78.5 -75t-94 -25q-100 0 -151.5 74.5t-65.5 214.5q-41 -75 -87.5 -137.5t-99 -107.5t-110 -70t-121.5 -25q-65 0 -126 23t-108 70.5t-75 121t-28 174.5q0 110 22.5 217t57 209.5t74 199.5t74 186.5t57 171t22.5 153.5q0 43 -9 72.5 t-25.5 47.5t-39 25.5t-49.5 7.5q-74 0 -144.5 -34t-133 -91t-115 -131t-90.5 -155t-59 -162.5t-21 -153.5q0 -77 29 -115t83 -38q39 0 79 23.5t77.5 65.5t71 100t59.5 128l41 -21q-19 -46 -51.5 -106t-77.5 -114t-102.5 -91t-126.5 -37q-42 0 -78 13.5t-62 40.5t-40.5 67 t-14.5 94zM746 1976l133 62l113 -256l-41 -31zM1178 723q33 113 58 224.5t42.5 212t26 184t8.5 139.5q0 49 -7.5 76.5t-21.5 27.5t-26 -39.5t-22.5 -106t-19.5 -154t-16.5 -183.5t-12.5 -194.5t-9 -186.5z" />
<glyph unicode="&#xda;" horiz-adv-x="1551" d="M-221 911q0 90 30.5 182t82.5 177.5t122 160t148.5 129.5t161.5 87t162 32q48 0 87.5 -15.5t68 -46t44 -76.5t15.5 -107q0 -74 -21.5 -167t-53 -195.5t-69 -211t-69 -215t-53 -206t-21.5 -183.5q0 -82 21.5 -132.5t52.5 -78t66.5 -36.5t64.5 -9q59 0 114 28t106 78 t96.5 119t86.5 150v47q0 125 9.5 266.5t27.5 281.5t44 268t58.5 226t71.5 156.5t82 58.5q31 0 46 -32t15 -101q0 -71 -12.5 -180t-37.5 -239.5t-63 -276t-89 -289.5v-63q0 -189 29.5 -287t101.5 -98q28 0 53 18t51 56t57.5 98.5t73.5 144.5l11 21l40 -31l-10 -21 q-50 -100 -89 -174.5t-76.5 -124.5t-78.5 -75t-94 -25q-100 0 -151.5 74.5t-65.5 214.5q-41 -75 -87.5 -137.5t-99 -107.5t-110 -70t-121.5 -25q-65 0 -126 23t-108 70.5t-75 121t-28 174.5q0 110 22.5 217t57 209.5t74 199.5t74 186.5t57 171t22.5 153.5q0 43 -9 72.5 t-25.5 47.5t-39 25.5t-49.5 7.5q-74 0 -144.5 -34t-133 -91t-115 -131t-90.5 -155t-59 -162.5t-21 -153.5q0 -77 29 -115t83 -38q39 0 79 23.5t77.5 65.5t71 100t59.5 128l41 -21q-19 -46 -51.5 -106t-77.5 -114t-102.5 -91t-126.5 -37q-42 0 -78 13.5t-62 40.5t-40.5 67 t-14.5 94zM823 1831l193 200l104 -102l-270 -141zM1178 723q33 113 58 224.5t42.5 212t26 184t8.5 139.5q0 49 -7.5 76.5t-21.5 27.5t-26 -39.5t-22.5 -106t-19.5 -154t-16.5 -183.5t-12.5 -194.5t-9 -186.5z" />
<glyph unicode="&#xdb;" horiz-adv-x="1551" d="M-221 911q0 90 30.5 182t82.5 177.5t122 160t148.5 129.5t161.5 87t162 32q48 0 87.5 -15.5t68 -46t44 -76.5t15.5 -107q0 -74 -21.5 -167t-53 -195.5t-69 -211t-69 -215t-53 -206t-21.5 -183.5q0 -82 21.5 -132.5t52.5 -78t66.5 -36.5t64.5 -9q59 0 114 28t106 78 t96.5 119t86.5 150v47q0 125 9.5 266.5t27.5 281.5t44 268t58.5 226t71.5 156.5t82 58.5q31 0 46 -32t15 -101q0 -71 -12.5 -180t-37.5 -239.5t-63 -276t-89 -289.5v-63q0 -189 29.5 -287t101.5 -98q28 0 53 18t51 56t57.5 98.5t73.5 144.5l11 21l40 -31l-10 -21 q-50 -100 -89 -174.5t-76.5 -124.5t-78.5 -75t-94 -25q-100 0 -151.5 74.5t-65.5 214.5q-41 -75 -87.5 -137.5t-99 -107.5t-110 -70t-121.5 -25q-65 0 -126 23t-108 70.5t-75 121t-28 174.5q0 110 22.5 217t57 209.5t74 199.5t74 186.5t57 171t22.5 153.5q0 43 -9 72.5 t-25.5 47.5t-39 25.5t-49.5 7.5q-74 0 -144.5 -34t-133 -91t-115 -131t-90.5 -155t-59 -162.5t-21 -153.5q0 -77 29 -115t83 -38q39 0 79 23.5t77.5 65.5t71 100t59.5 128l41 -21q-19 -46 -51.5 -106t-77.5 -114t-102.5 -91t-126.5 -37q-42 0 -78 13.5t-62 40.5t-40.5 67 t-14.5 94zM662 1843l266 195l266 -195l-30 -41l-236 123l-235 -123zM1178 723q33 113 58 224.5t42.5 212t26 184t8.5 139.5q0 49 -7.5 76.5t-21.5 27.5t-26 -39.5t-22.5 -106t-19.5 -154t-16.5 -183.5t-12.5 -194.5t-9 -186.5z" />
<glyph unicode="&#xdc;" horiz-adv-x="1551" d="M-221 911q0 90 30.5 182t82.5 177.5t122 160t148.5 129.5t161.5 87t162 32q48 0 87.5 -15.5t68 -46t44 -76.5t15.5 -107q0 -74 -21.5 -167t-53 -195.5t-69 -211t-69 -215t-53 -206t-21.5 -183.5q0 -82 21.5 -132.5t52.5 -78t66.5 -36.5t64.5 -9q59 0 114 28t106 78 t96.5 119t86.5 150v47q0 125 9.5 266.5t27.5 281.5t44 268t58.5 226t71.5 156.5t82 58.5q31 0 46 -32t15 -101q0 -71 -12.5 -180t-37.5 -239.5t-63 -276t-89 -289.5v-63q0 -189 29.5 -287t101.5 -98q28 0 53 18t51 56t57.5 98.5t73.5 144.5l11 21l40 -31l-10 -21 q-50 -100 -89 -174.5t-76.5 -124.5t-78.5 -75t-94 -25q-100 0 -151.5 74.5t-65.5 214.5q-41 -75 -87.5 -137.5t-99 -107.5t-110 -70t-121.5 -25q-65 0 -126 23t-108 70.5t-75 121t-28 174.5q0 110 22.5 217t57 209.5t74 199.5t74 186.5t57 171t22.5 153.5q0 43 -9 72.5 t-25.5 47.5t-39 25.5t-49.5 7.5q-74 0 -144.5 -34t-133 -91t-115 -131t-90.5 -155t-59 -162.5t-21 -153.5q0 -77 29 -115t83 -38q39 0 79 23.5t77.5 65.5t71 100t59.5 128l41 -21q-19 -46 -51.5 -106t-77.5 -114t-102.5 -91t-126.5 -37q-42 0 -78 13.5t-62 40.5t-40.5 67 t-14.5 94zM723 1925q0 34 24 58t58 24q35 0 58.5 -24t23.5 -58q0 -35 -23.5 -58.5t-58.5 -23.5q-34 0 -58 23.5t-24 58.5zM989 1925q0 34 24 58t58 24q35 0 58.5 -24t23.5 -58q0 -35 -23.5 -58.5t-58.5 -23.5q-34 0 -58 23.5t-24 58.5zM1178 723q33 113 58 224.5t42.5 212 t26 184t8.5 139.5q0 49 -7.5 76.5t-21.5 27.5t-26 -39.5t-22.5 -106t-19.5 -154t-16.5 -183.5t-12.5 -194.5t-9 -186.5z" />
<glyph unicode="&#xdd;" horiz-adv-x="1479" d="M-190 901q0 90 30.5 183t82.5 179.5t122 162t148.5 132t161.5 89t162 32.5q48 0 87.5 -15.5t68 -46t44 -76.5t15.5 -107q0 -74 -21.5 -167.5t-53 -197.5t-69 -214t-69 -217t-53 -207.5t-21.5 -184.5q0 -82 21.5 -131t52.5 -74.5t66.5 -33t64.5 -7.5q67 0 128 33.5 t116.5 93.5t105 141.5t92.5 177.5q4 158 9.5 311t14.5 290t24 253t40 200t60.5 131.5t85.5 47.5q30 0 55.5 -32t25.5 -101q0 -64 -9.5 -158t-29 -208t-49 -241t-69.5 -257v-55q0 -136 -2.5 -277.5t-10 -283t-20.5 -279.5t-35 -268l-153 -21q29 183 41 396.5t20 443.5 q-44 -87 -94 -158.5t-106 -123t-119 -79.5t-132 -28q-65 0 -126 21t-108 67t-75 117.5t-28 173.5q0 110 22.5 218t57 211.5t74 201.5t74 189t57 173t22.5 154q0 43 -9 72.5t-25.5 47.5t-39 25.5t-49.5 7.5q-74 0 -144.5 -34.5t-133 -92.5t-115 -133.5t-90.5 -157.5 t-59 -164.5t-21 -154.5q0 -78 29 -116t83 -38q39 0 79 23.5t77.5 65.5t71 100.5t59.5 128.5l41 -21q-13 -31 -31.5 -68.5t-43 -76.5t-54.5 -75.5t-65.5 -65t-76.5 -45.5t-87 -17q-42 0 -78 13.5t-62 40.5t-40.5 67t-14.5 94zM881 1831l193 200l104 -102l-270 -141zM1248 862 q23 94 41 185.5t30 172.5t18.5 148.5t6.5 114.5q0 49 -7.5 76.5t-21.5 27.5q-22 0 -35.5 -36.5t-20.5 -103t-9 -159.5t-2 -205v-221z" />
<glyph unicode="&#xde;" horiz-adv-x="1197" d="M-11 432q0 130 25.5 251.5t73 228t116.5 195t156 153.5q-5 83 -8.5 155.5t-5.5 126.5q-3 63 -5 117q0 -1 3.5 2.5t11 8t19 8t26.5 3.5q22 0 41.5 -3t33.5 -10.5t22.5 -20.5t8.5 -33q0 -42 1.5 -114t6.5 -152q65 26 135 40.5t148 14.5q103 0 191.5 -29t152.5 -84.5 t100.5 -137t36.5 -187.5q0 -128 -53 -230.5t-149.5 -176t-231.5 -115.5t-299 -48q0 -3 -0.5 -26.5t-0.5 -60t-0.5 -81.5t-0.5 -90q0 -79 -10 -142t-36 -107t-71.5 -67.5t-116.5 -23.5t-129.5 47.5t-101.5 132.5t-66.5 201.5t-23.5 253.5zM102 330q0 -57 6.5 -114.5 t18.5 -111t30 -100.5t41 -81.5t50.5 -54.5t59.5 -20q35 0 55.5 15.5t31.5 48t14.5 83t3.5 120.5q0 38 -1 82t-2.5 83.5t-3.5 71t-3 45.5q-15 2 -26 5t-19 5l-15 5l8 49q5 -2 12 -4q6 -2 15 -4t21 -4l-35 727q-59 -61 -107.5 -144.5t-83 -189t-53 -234t-18.5 -278.5z M517 1286q3 -80 6 -166.5t5.5 -172t5 -165t5 -146t3.5 -116t2 -74.5q130 5 233.5 48t176.5 113.5t112 162.5t39 195q0 107 -28 179.5t-76.5 116t-114 62t-139.5 18.5q-60 0 -118 -13.5t-112 -41.5z" />
<glyph unicode="&#xdf;" horiz-adv-x="838" d="M-92 -164q38 0 59 39.5t21 124.5v872q0 134 20.5 229t61.5 155t102.5 88t144.5 28q50 0 99 -15t87.5 -44t62.5 -73t24 -101q0 -54 -23 -97t-57 -76.5t-74.5 -60t-74.5 -47.5t-57 -38t-23 -32q0 -20 35 -37t88 -37.5t114.5 -48t114.5 -68.5t88 -99t35 -140 q0 -77 -23.5 -142.5t-67 -113.5t-105 -75t-136.5 -27q-54 0 -96.5 17.5t-72.5 47t-46 67t-16 77.5t15.5 74.5t42 59t60.5 38.5t72 14q25 0 49 -6v-29q-32 0 -56 -11t-40 -29.5t-23.5 -43t-7.5 -51.5q0 -38 8 -70t24.5 -55t41 -36t57.5 -13q41 0 77 14.5t62.5 40.5t42 63.5 t15.5 82.5q0 82 -31 141.5t-78 104t-101 79t-101 65.5t-78 63t-31 73q0 36 19 59t48 41t62 35.5t62 43t48 63t19 96.5q0 54 -15 93t-39 63.5t-53.5 36.5t-58.5 12q-54 0 -89.5 -20.5t-56.5 -63.5t-29.5 -108t-8.5 -154v-975q0 -69 -16 -111t-44.5 -65.5t-67.5 -31t-85 -7.5 v51z" />
<glyph unicode="&#xe0;" horiz-adv-x="874" d="M-25 348q0 104 27 190.5t73 149t106 97t126 34.5q40 0 74 -18t59.5 -43.5t42.5 -54t23 -48.5l12 97q2 19 18.5 32t36.5 20.5t39 11t27 3.5q12 0 16 -4t4 -16q0 -15 -8.5 -60.5t-18 -116t-18 -165.5t-8.5 -209q0 -57 10 -96t35 -39q15 0 32.5 14.5t40.5 47.5t52.5 85.5 t67.5 128.5l30 62l41 -31l-30 -62q-42 -84 -78.5 -150.5t-69.5 -112.5t-64.5 -70.5t-62.5 -24.5q-33 0 -55.5 18t-37.5 49.5t-23 73t-11 88.5q-24 -48 -53 -89.5t-60.5 -72.5t-65.5 -49t-68 -18q-50 0 -97 21t-83.5 64t-58.5 108.5t-22 154.5zM117 420q0 -150 47 -228.5 t125 -78.5q34 0 70.5 27.5t67 79t50 125.5t19.5 167q0 46 -14 90.5t-38 79t-55.5 55.5t-66.5 21q-43 0 -80.5 -24.5t-65 -69t-43.5 -107t-16 -137.5zM252 1116l133 62l113 -256l-41 -31z" />
<glyph unicode="&#xe1;" horiz-adv-x="874" d="M-25 348q0 104 27 190.5t73 149t106 97t126 34.5q40 0 74 -18t59.5 -43.5t42.5 -54t23 -48.5l12 97q2 19 18.5 32t36.5 20.5t39 11t27 3.5q12 0 16 -4t4 -16q0 -15 -8.5 -60.5t-18 -116t-18 -165.5t-8.5 -209q0 -57 10 -96t35 -39q15 0 32.5 14.5t40.5 47.5t52.5 85.5 t67.5 128.5l30 62l41 -31l-30 -62q-42 -84 -78.5 -150.5t-69.5 -112.5t-64.5 -70.5t-62.5 -24.5q-33 0 -55.5 18t-37.5 49.5t-23 73t-11 88.5q-24 -48 -53 -89.5t-60.5 -72.5t-65.5 -49t-68 -18q-50 0 -97 21t-83.5 64t-58.5 108.5t-22 154.5zM117 420q0 -150 47 -228.5 t125 -78.5q34 0 70.5 27.5t67 79t50 125.5t19.5 167q0 46 -14 90.5t-38 79t-55.5 55.5t-66.5 21q-43 0 -80.5 -24.5t-65 -69t-43.5 -107t-16 -137.5zM248 971l193 200l104 -102l-270 -141z" />
<glyph unicode="&#xe2;" horiz-adv-x="874" d="M-25 348q0 104 27 190.5t73 149t106 97t126 34.5q40 0 74 -18t59.5 -43.5t42.5 -54t23 -48.5l12 97q2 19 18.5 32t36.5 20.5t39 11t27 3.5q12 0 16 -4t4 -16q0 -15 -8.5 -60.5t-18 -116t-18 -165.5t-8.5 -209q0 -57 10 -96t35 -39q15 0 32.5 14.5t40.5 47.5t52.5 85.5 t67.5 128.5l30 62l41 -31l-30 -62q-42 -84 -78.5 -150.5t-69.5 -112.5t-64.5 -70.5t-62.5 -24.5q-33 0 -55.5 18t-37.5 49.5t-23 73t-11 88.5q-24 -48 -53 -89.5t-60.5 -72.5t-65.5 -49t-68 -18q-50 0 -97 21t-83.5 64t-58.5 108.5t-22 154.5zM106 983l266 195l266 -195 l-30 -41l-236 123l-235 -123zM117 420q0 -150 47 -228.5t125 -78.5q34 0 70.5 27.5t67 79t50 125.5t19.5 167q0 46 -14 90.5t-38 79t-55.5 55.5t-66.5 21q-43 0 -80.5 -24.5t-65 -69t-43.5 -107t-16 -137.5z" />
<glyph unicode="&#xe3;" horiz-adv-x="874" d="M-25 348q0 104 27 190.5t73 149t106 97t126 34.5q40 0 74 -18t59.5 -43.5t42.5 -54t23 -48.5l12 97q2 19 18.5 32t36.5 20.5t39 11t27 3.5q12 0 16 -4t4 -16q0 -15 -8.5 -60.5t-18 -116t-18 -165.5t-8.5 -209q0 -57 10 -96t35 -39q15 0 32.5 14.5t40.5 47.5t52.5 85.5 t67.5 128.5l30 62l41 -31l-30 -62q-42 -84 -78.5 -150.5t-69.5 -112.5t-64.5 -70.5t-62.5 -24.5q-33 0 -55.5 18t-37.5 49.5t-23 73t-11 88.5q-24 -48 -53 -89.5t-60.5 -72.5t-65.5 -49t-68 -18q-50 0 -97 21t-83.5 64t-58.5 108.5t-22 154.5zM111 983q5 46 22 82 q14 31 42.5 56.5t78.5 25.5q31 0 63 -9.5t65 -21.5t65 -21.5t63 -9.5q23 0 37 9.5t22 21.5q9 13 13 31h41q-5 -46 -22 -82q-14 -31 -43 -56.5t-78 -25.5q-31 0 -63.5 9.5t-65.5 21t-65 21t-62 9.5q-23 0 -37 -10t-22 -21q-9 -13 -13 -30h-41zM117 420q0 -150 47 -228.5 t125 -78.5q34 0 70.5 27.5t67 79t50 125.5t19.5 167q0 46 -14 90.5t-38 79t-55.5 55.5t-66.5 21q-43 0 -80.5 -24.5t-65 -69t-43.5 -107t-16 -137.5z" />
<glyph unicode="&#xe4;" horiz-adv-x="874" d="M-25 348q0 104 27 190.5t73 149t106 97t126 34.5q40 0 74 -18t59.5 -43.5t42.5 -54t23 -48.5l12 97q2 19 18.5 32t36.5 20.5t39 11t27 3.5q12 0 16 -4t4 -16q0 -15 -8.5 -60.5t-18 -116t-18 -165.5t-8.5 -209q0 -57 10 -96t35 -39q15 0 32.5 14.5t40.5 47.5t52.5 85.5 t67.5 128.5l30 62l41 -31l-30 -62q-42 -84 -78.5 -150.5t-69.5 -112.5t-64.5 -70.5t-62.5 -24.5q-33 0 -55.5 18t-37.5 49.5t-23 73t-11 88.5q-24 -48 -53 -89.5t-60.5 -72.5t-65.5 -49t-68 -18q-50 0 -97 21t-83.5 64t-58.5 108.5t-22 154.5zM117 420q0 -150 47 -228.5 t125 -78.5q34 0 70.5 27.5t67 79t50 125.5t19.5 167q0 46 -14 90.5t-38 79t-55.5 55.5t-66.5 21q-43 0 -80.5 -24.5t-65 -69t-43.5 -107t-16 -137.5zM190 1065q0 34 24 58t58 24q35 0 58.5 -24t23.5 -58q0 -35 -23.5 -58.5t-58.5 -23.5q-34 0 -58 23.5t-24 58.5zM456 1065 q0 34 24 58t58 24q35 0 58.5 -24t23.5 -58q0 -35 -23.5 -58.5t-58.5 -23.5q-34 0 -58 23.5t-24 58.5z" />
<glyph unicode="&#xe5;" horiz-adv-x="874" d="M-25 348q0 104 27 190.5t73 149t106 97t126 34.5q40 0 74 -18t59.5 -43.5t42.5 -54t23 -48.5l12 97q2 19 18.5 32t36.5 20.5t39 11t27 3.5q12 0 16 -4t4 -16q0 -15 -8.5 -60.5t-18 -116t-18 -165.5t-8.5 -209q0 -57 10 -96t35 -39q15 0 32.5 14.5t40.5 47.5t52.5 85.5 t67.5 128.5l30 62l41 -31l-30 -62q-42 -84 -78.5 -150.5t-69.5 -112.5t-64.5 -70.5t-62.5 -24.5q-33 0 -55.5 18t-37.5 49.5t-23 73t-11 88.5q-24 -48 -53 -89.5t-60.5 -72.5t-65.5 -49t-68 -18q-50 0 -97 21t-83.5 64t-58.5 108.5t-22 154.5zM117 420q0 -150 47 -228.5 t125 -78.5q34 0 70.5 27.5t67 79t50 125.5t19.5 167q0 46 -14 90.5t-38 79t-55.5 55.5t-66.5 21q-43 0 -80.5 -24.5t-65 -69t-43.5 -107t-16 -137.5zM262 1083q0 34 13 64.5t35.5 53t52 35.5t63.5 13t63.5 -13t52 -35.5t35.5 -53t13 -64.5q0 -33 -13 -62.5t-35.5 -51 t-52 -34.5t-63.5 -13t-63.5 13t-52 34.5t-35.5 51t-13 62.5zM323 1085q0 -21 8.5 -39.5t22.5 -32.5t32.5 -22t39.5 -8t39.5 8t32.5 22t22 32.5t8 39.5t-8 39.5t-22 33t-32.5 22.5t-39.5 8t-39.5 -8t-32.5 -22.5t-22.5 -33t-8.5 -39.5z" />
<glyph unicode="&#xe6;" horiz-adv-x="1157" d="M-25 348q0 104 27 190.5t71.5 149t100.5 97t115 34.5q48 0 85.5 -15t64.5 -36.5t44 -46.5t23 -45v76q0 19 12.5 32t29 20.5t32.5 11t24 3.5q20 0 27.5 -9t7.5 -32q0 -8 -2.5 -24t-5.5 -45q48 52 105.5 81t119.5 29q38 0 65 -11t44 -27.5t24.5 -36t7.5 -37.5 q0 -37 -18 -73.5t-47.5 -70.5t-67.5 -66t-78 -60.5t-79.5 -52t-71.5 -42.5q2 -54 9.5 -99.5t24 -79t43.5 -52.5t68 -19q35 0 81 21t95.5 63.5t99 106t91.5 147.5l10 21l41 -31l-10 -21q-54 -107 -117 -183t-126.5 -124t-122.5 -70t-105 -22q-47 0 -81.5 14t-58.5 39.5 t-38.5 60.5t-22.5 76q-25 -39 -56 -73.5t-66.5 -60.5t-75 -41t-82.5 -15q-50 0 -97 21t-83.5 64t-58.5 108.5t-22 154.5zM117 420q0 -50 9.5 -104t31 -99t56 -74.5t83.5 -29.5q38 0 68 13t52.5 32.5t38 43t25.5 45t14.5 38t4.5 22.5q0 42 2 94t2 111q0 46 -15 90.5t-40.5 79 t-58.5 55.5t-68 21q-43 0 -80.5 -24.5t-65 -69t-43.5 -107t-16 -137.5zM635 393q34 19 79 49t84.5 66t67 76.5t27.5 81.5q0 38 -21.5 65t-64.5 27q-29 0 -59 -21t-55.5 -63t-41.5 -106t-16 -150v-25z" />
<glyph unicode="&#xe7;" horiz-adv-x="635" d="M-18 338q0 108 29.5 196.5t76.5 151.5t106 98t119 35q46 0 77 -13t50 -33t27 -43t8 -44t-9 -43.5t-26.5 -42t-41.5 -35t-54 -22.5l-10 28q12 19 20.5 47t8.5 56q0 34 -17 59t-61 25q-29 0 -59 -21t-55.5 -63t-41.5 -106t-16 -150q0 -68 14 -124t41 -96t65.5 -62.5 t86.5 -22.5q35 0 71.5 18t74 56t77.5 98.5t82 144.5l10 21l41 -31l-10 -21q-48 -95 -95.5 -165.5t-93.5 -118.5t-91 -75t-87 -36v-29q84 0 124 -23t40 -61q0 -22 -15.5 -48t-45.5 -52t-75.5 -49t-105.5 -39l-14 47q82 29 118 54t36 40q0 17 -30 27t-83 10v119 q-63 2 -112.5 30t-83.5 74t-52 106.5t-18 127.5z" />
<glyph unicode="&#xe8;" horiz-adv-x="606" d="M-43 338q0 108 29.5 196.5t79 151.5t112.5 98t131 35q69 0 105.5 -35t36.5 -88q0 -51 -29 -95.5t-78.5 -87t-114.5 -84t-137 -85.5q7 -52 24 -94.5t43 -73t60 -47t76 -16.5q35 0 71.5 18t74 56t77.5 98.5t82 144.5l10 21l41 -31l-10 -21q-54 -107 -107.5 -183t-105 -124 t-101.5 -70t-96 -22q-65 0 -116 27t-86 73.5t-53.5 108t-18.5 129.5zM88 395q34 18 75.5 47.5t77.5 65.5t60.5 76.5t24.5 81.5q0 40 -21.5 63t-52.5 23q-26 0 -55 -18.5t-53 -59t-40 -103.5t-16 -153v-23zM98 1116l133 62l113 -256l-41 -31z" />
<glyph unicode="&#xe9;" horiz-adv-x="606" d="M-43 338q0 108 29.5 196.5t79 151.5t112.5 98t131 35q69 0 105.5 -35t36.5 -88q0 -51 -29 -95.5t-78.5 -87t-114.5 -84t-137 -85.5q7 -52 24 -94.5t43 -73t60 -47t76 -16.5q35 0 71.5 18t74 56t77.5 98.5t82 144.5l10 21l41 -31l-10 -21q-54 -107 -107.5 -183t-105 -124 t-101.5 -70t-96 -22q-65 0 -116 27t-86 73.5t-53.5 108t-18.5 129.5zM88 395q34 18 75.5 47.5t77.5 65.5t60.5 76.5t24.5 81.5q0 40 -21.5 63t-52.5 23q-26 0 -55 -18.5t-53 -59t-40 -103.5t-16 -153v-23zM133 971l193 200l104 -102l-270 -141z" />
<glyph unicode="&#xea;" horiz-adv-x="606" d="M-43 338q0 108 29.5 196.5t79 151.5t112.5 98t131 35q69 0 105.5 -35t36.5 -88q0 -51 -29 -95.5t-78.5 -87t-114.5 -84t-137 -85.5q7 -52 24 -94.5t43 -73t60 -47t76 -16.5q35 0 71.5 18t74 56t77.5 98.5t82 144.5l10 21l41 -31l-10 -21q-54 -107 -107.5 -183t-105 -124 t-101.5 -70t-96 -22q-65 0 -116 27t-86 73.5t-53.5 108t-18.5 129.5zM6 983l266 195l266 -195l-30 -41l-236 123l-235 -123zM88 395q34 18 75.5 47.5t77.5 65.5t60.5 76.5t24.5 81.5q0 40 -21.5 63t-52.5 23q-26 0 -55 -18.5t-53 -59t-40 -103.5t-16 -153v-23z" />
<glyph unicode="&#xeb;" horiz-adv-x="606" d="M-43 338q0 108 29.5 196.5t79 151.5t112.5 98t131 35q69 0 105.5 -35t36.5 -88q0 -51 -29 -95.5t-78.5 -87t-114.5 -84t-137 -85.5q7 -52 24 -94.5t43 -73t60 -47t76 -16.5q35 0 71.5 18t74 56t77.5 98.5t82 144.5l10 21l41 -31l-10 -21q-54 -107 -107.5 -183t-105 -124 t-101.5 -70t-96 -22q-65 0 -116 27t-86 73.5t-53.5 108t-18.5 129.5zM68 1065q0 34 24 58t58 24q35 0 58.5 -24t23.5 -58q0 -35 -23.5 -58.5t-58.5 -23.5q-34 0 -58 23.5t-24 58.5zM88 395q34 18 75.5 47.5t77.5 65.5t60.5 76.5t24.5 81.5q0 40 -21.5 63t-52.5 23 q-26 0 -55 -18.5t-53 -59t-40 -103.5t-16 -153v-23zM334 1065q0 34 24 58t58 24q35 0 58.5 -24t23.5 -58q0 -35 -23.5 -58.5t-58.5 -23.5q-34 0 -58 23.5t-24 58.5z" />
<glyph unicode="&#xec;" horiz-adv-x="494" d="M-10 430l10 21q25 51 41.5 102.5t27 96.5t17.5 79t14 49q6 12 17.5 19.5t24 12.5t24 7t16.5 2q22 0 29.5 -9t7.5 -32q0 -11 -4.5 -54.5t-10 -109t-10 -147t-4.5 -168.5q0 -63 6 -99.5t15.5 -54.5t21 -23t23.5 -5q16 0 36 14t47 49.5t62 96t82 153.5l11 21l41 -31l-11 -21 q-38 -74 -75 -146t-75.5 -128t-79 -90.5t-83.5 -34.5q-38 0 -66.5 16.5t-47.5 54.5t-28.5 100.5t-9.5 154.5v54.5t2 59.5h-10l-20 -41zM61 1116l133 62l113 -256l-41 -31z" />
<glyph unicode="&#xed;" horiz-adv-x="494" d="M-10 430l10 21q25 51 41.5 102.5t27 96.5t17.5 79t14 49q6 12 17.5 19.5t24 12.5t24 7t16.5 2q22 0 29.5 -9t7.5 -32q0 -11 -4.5 -54.5t-10 -109t-10 -147t-4.5 -168.5q0 -63 6 -99.5t15.5 -54.5t21 -23t23.5 -5q16 0 36 14t47 49.5t62 96t82 153.5l11 21l41 -31l-11 -21 q-38 -74 -75 -146t-75.5 -128t-79 -90.5t-83.5 -34.5q-38 0 -66.5 16.5t-47.5 54.5t-28.5 100.5t-9.5 154.5v54.5t2 59.5h-10l-20 -41zM16 971l193 200l104 -102l-270 -141z" />
<glyph unicode="&#xee;" horiz-adv-x="494" d="M-99 983l266 195l266 -195l-30 -41l-236 123l-235 -123zM-10 430l10 21q25 51 41.5 102.5t27 96.5t17.5 79t14 49q6 12 17.5 19.5t24 12.5t24 7t16.5 2q22 0 29.5 -9t7.5 -32q0 -11 -4.5 -54.5t-10 -109t-10 -147t-4.5 -168.5q0 -63 6 -99.5t15.5 -54.5t21 -23t23.5 -5 q16 0 36 14t47 49.5t62 96t82 153.5l11 21l41 -31l-11 -21q-38 -74 -75 -146t-75.5 -128t-79 -90.5t-83.5 -34.5q-38 0 -66.5 16.5t-47.5 54.5t-28.5 100.5t-9.5 154.5v54.5t2 59.5h-10l-20 -41z" />
<glyph unicode="&#xef;" horiz-adv-x="494" d="M-19 1065q0 34 24 58t58 24q35 0 58.5 -24t23.5 -58q0 -35 -23.5 -58.5t-58.5 -23.5q-34 0 -58 23.5t-24 58.5zM-10 430l10 21q25 51 41.5 102.5t27 96.5t17.5 79t14 49q6 12 17.5 19.5t24 12.5t24 7t16.5 2q22 0 29.5 -9t7.5 -32q0 -11 -4.5 -54.5t-10 -109t-10 -147 t-4.5 -168.5q0 -63 6 -99.5t15.5 -54.5t21 -23t23.5 -5q16 0 36 14t47 49.5t62 96t82 153.5l11 21l41 -31l-11 -21q-38 -74 -75 -146t-75.5 -128t-79 -90.5t-83.5 -34.5q-38 0 -66.5 16.5t-47.5 54.5t-28.5 100.5t-9.5 154.5v54.5t2 59.5h-10l-20 -41zM247 1065q0 34 24 58 t58 24q35 0 58.5 -24t23.5 -58q0 -35 -23.5 -58.5t-58.5 -23.5q-34 0 -58 23.5t-24 58.5z" />
<glyph unicode="&#xf0;" horiz-adv-x="768" d="M-10 389q0 111 31 195t79.5 141t108.5 86t119 29q33 0 60 -7.5t48.5 -19.5t39 -27t30.5 -31q30 -38 47 -85l-21 -45q-16 48 -42 87q-11 16 -25 31.5t-32 28t-39 20t-46 7.5q-41 0 -80 -25.5t-69 -74.5t-48 -122t-18 -167q0 -69 13 -134t38 -115t61.5 -80t82.5 -30 q45 0 82.5 28t64.5 80.5t42 128.5t15 173q0 100 -17 196.5t-44.5 186t-62.5 170t-71 149.5q-85 162 -194 301l41 31q136 -139 243 -302q45 -69 89 -151t78 -172.5t55 -189t21 -201.5q0 -107 -25.5 -195t-72 -151t-110.5 -98t-140 -35q-77 0 -138.5 29t-104.5 81t-66 123.5 t-23 155.5zM195 1090l327 188l31 -53l-328 -189z" />
<glyph unicode="&#xf1;" d="M-33 49q0 15 3 37.5t7.5 48.5t10 53.5t10.5 51.5v489q0 20 0.5 31.5t3.5 17.5q6 14 21 22t32 12.5t33 5.5t25 1q17 0 23.5 -9t6.5 -32q0 3 -4.5 -49t-7.5 -149q30 47 65 90t73 76t78.5 53t82.5 20q75 0 110 -47.5t35 -128.5q0 -51 -6.5 -113.5t-15 -127t-15 -126 t-6.5 -112.5q0 -66 41 -66q13 0 30.5 13.5t44 50.5t63.5 101.5t88 166.5l10 21l41 -31l-10 -21q-60 -120 -106.5 -197t-84.5 -122t-71 -62.5t-66 -17.5q-21 0 -42 6t-37 21t-26 40.5t-10 65.5q0 60 8 135t18 150t18 141.5t8 108.5q0 37 -16 59.5t-48 22.5q-28 0 -62.5 -25 t-69.5 -64.5t-67.5 -88.5t-56.5 -97q-3 -88 -5.5 -192t-2.5 -222q0 -15 -13.5 -26.5t-31.5 -19t-37 -11.5t-31 -4q-15 0 -28 9t-13 40zM14 983q5 46 22 82q14 31 42.5 56.5t78.5 25.5q31 0 63 -9.5t65 -21.5t65 -21.5t63 -9.5q23 0 37 9.5t22 21.5q9 13 13 31h41 q-5 -46 -22 -82q-14 -31 -43 -56.5t-78 -25.5q-31 0 -63.5 9.5t-65.5 21t-65 21t-62 9.5q-23 0 -37 -10t-22 -21q-9 -13 -13 -30h-41z" />
<glyph unicode="&#xf2;" horiz-adv-x="797" d="M-10 410q0 74 17 134.5t43 108t58 83t63 58.5t56.5 34.5t38.5 11.5l13 -35q-41 -30 -73 -84q-28 -46 -50.5 -122t-22.5 -189q0 -69 13 -134t38 -115t61.5 -80t82.5 -30q63 0 104.5 50.5t61.5 138.5q-52 11 -99 41t-83 74.5t-57.5 102.5t-21.5 126q0 56 14.5 98.5t38.5 71 t55.5 43t66.5 14.5q41 0 84 -23.5t78 -70t57 -116.5t22 -163q0 -35 -4 -69t-12 -66q48 14 87.5 45t65.5 82l11 21l41 -31l-11 -21q-34 -68 -90.5 -108.5t-122.5 -52.5q-18 -51 -46.5 -94.5t-65 -75.5t-82 -50t-98.5 -18q-77 0 -138.5 32.5t-104.5 88t-66 130t-23 159.5z M152 1116l133 62l113 -256l-41 -31zM299 592q0 -59 16.5 -108.5t44.5 -87t65 -62.5t79 -35q5 28 6.5 58.5t1.5 62.5q0 71 -11 128.5t-29 98t-42 62.5t-49 22q-34 0 -58 -36.5t-24 -102.5z" />
<glyph unicode="&#xf3;" horiz-adv-x="797" d="M-10 410q0 74 17 134.5t43 108t58 83t63 58.5t56.5 34.5t38.5 11.5l13 -35q-41 -30 -73 -84q-28 -46 -50.5 -122t-22.5 -189q0 -69 13 -134t38 -115t61.5 -80t82.5 -30q63 0 104.5 50.5t61.5 138.5q-52 11 -99 41t-83 74.5t-57.5 102.5t-21.5 126q0 56 14.5 98.5t38.5 71 t55.5 43t66.5 14.5q41 0 84 -23.5t78 -70t57 -116.5t22 -163q0 -35 -4 -69t-12 -66q48 14 87.5 45t65.5 82l11 21l41 -31l-11 -21q-34 -68 -90.5 -108.5t-122.5 -52.5q-18 -51 -46.5 -94.5t-65 -75.5t-82 -50t-98.5 -18q-77 0 -138.5 32.5t-104.5 88t-66 130t-23 159.5z M168 971l193 200l104 -102l-270 -141zM299 592q0 -59 16.5 -108.5t44.5 -87t65 -62.5t79 -35q5 28 6.5 58.5t1.5 62.5q0 71 -11 128.5t-29 98t-42 62.5t-49 22q-34 0 -58 -36.5t-24 -102.5z" />
<glyph unicode="&#xf4;" horiz-adv-x="797" d="M-10 410q0 74 17 134.5t43 108t58 83t63 58.5t56.5 34.5t38.5 11.5l13 -35q-41 -30 -73 -84q-28 -46 -50.5 -122t-22.5 -189q0 -69 13 -134t38 -115t61.5 -80t82.5 -30q63 0 104.5 50.5t61.5 138.5q-52 11 -99 41t-83 74.5t-57.5 102.5t-21.5 126q0 56 14.5 98.5t38.5 71 t55.5 43t66.5 14.5q41 0 84 -23.5t78 -70t57 -116.5t22 -163q0 -35 -4 -69t-12 -66q48 14 87.5 45t65.5 82l11 21l41 -31l-11 -21q-34 -68 -90.5 -108.5t-122.5 -52.5q-18 -51 -46.5 -94.5t-65 -75.5t-82 -50t-98.5 -18q-77 0 -138.5 32.5t-104.5 88t-66 130t-23 159.5z M49 983l266 195l266 -195l-30 -41l-236 123l-235 -123zM299 592q0 -59 16.5 -108.5t44.5 -87t65 -62.5t79 -35q5 28 6.5 58.5t1.5 62.5q0 71 -11 128.5t-29 98t-42 62.5t-49 22q-34 0 -58 -36.5t-24 -102.5z" />
<glyph unicode="&#xf5;" horiz-adv-x="797" d="M-10 410q0 74 17 134.5t43 108t58 83t63 58.5t56.5 34.5t38.5 11.5l13 -35q-41 -30 -73 -84q-28 -46 -50.5 -122t-22.5 -189q0 -69 13 -134t38 -115t61.5 -80t82.5 -30q63 0 104.5 50.5t61.5 138.5q-52 11 -99 41t-83 74.5t-57.5 102.5t-21.5 126q0 56 14.5 98.5t38.5 71 t55.5 43t66.5 14.5q41 0 84 -23.5t78 -70t57 -116.5t22 -163q0 -35 -4 -69t-12 -66q48 14 87.5 45t65.5 82l11 21l41 -31l-11 -21q-34 -68 -90.5 -108.5t-122.5 -52.5q-18 -51 -46.5 -94.5t-65 -75.5t-82 -50t-98.5 -18q-77 0 -138.5 32.5t-104.5 88t-66 130t-23 159.5z M55 983q5 46 22 82q14 31 42.5 56.5t78.5 25.5q31 0 63 -9.5t65 -21.5t65 -21.5t63 -9.5q23 0 37 9.5t22 21.5q9 13 13 31h41q-5 -46 -22 -82q-14 -31 -43 -56.5t-78 -25.5q-31 0 -63.5 9.5t-65.5 21t-65 21t-62 9.5q-23 0 -37 -10t-22 -21q-9 -13 -13 -30h-41zM299 592 q0 -59 16.5 -108.5t44.5 -87t65 -62.5t79 -35q5 28 6.5 58.5t1.5 62.5q0 71 -11 128.5t-29 98t-42 62.5t-49 22q-34 0 -58 -36.5t-24 -102.5z" />
<glyph unicode="&#xf6;" horiz-adv-x="797" d="M-10 410q0 74 17 134.5t43 108t58 83t63 58.5t56.5 34.5t38.5 11.5l13 -35q-41 -30 -73 -84q-28 -46 -50.5 -122t-22.5 -189q0 -69 13 -134t38 -115t61.5 -80t82.5 -30q63 0 104.5 50.5t61.5 138.5q-52 11 -99 41t-83 74.5t-57.5 102.5t-21.5 126q0 56 14.5 98.5t38.5 71 t55.5 43t66.5 14.5q41 0 84 -23.5t78 -70t57 -116.5t22 -163q0 -35 -4 -69t-12 -66q48 14 87.5 45t65.5 82l11 21l41 -31l-11 -21q-34 -68 -90.5 -108.5t-122.5 -52.5q-18 -51 -46.5 -94.5t-65 -75.5t-82 -50t-98.5 -18q-77 0 -138.5 32.5t-104.5 88t-66 130t-23 159.5z M106 1065q0 34 24 58t58 24q35 0 58.5 -24t23.5 -58q0 -35 -23.5 -58.5t-58.5 -23.5q-34 0 -58 23.5t-24 58.5zM299 592q0 -59 16.5 -108.5t44.5 -87t65 -62.5t79 -35q5 28 6.5 58.5t1.5 62.5q0 71 -11 128.5t-29 98t-42 62.5t-49 22q-34 0 -58 -36.5t-24 -102.5zM372 1065 q0 34 24 58t58 24q35 0 58.5 -24t23.5 -58q0 -35 -23.5 -58.5t-58.5 -23.5q-34 0 -58 23.5t-24 58.5z" />
<glyph unicode="&#xf7;" horiz-adv-x="850" d="M123 532v82h604v-82h-604zM332 349q0 19 7 36t19.5 29.5t29.5 19.5t36 7t36 -7t29.5 -19.5t19.5 -29.5t7 -36q0 -20 -7 -36.5t-19.5 -29.5t-29.5 -20t-36 -7t-36 7t-29.5 20t-19.5 29.5t-7 36.5zM332 820q0 19 7 36t19.5 29.5t29.5 19.5t36 7t36 -7t29.5 -19.5 t19.5 -29.5t7 -36q0 -20 -7 -36.5t-19.5 -29.5t-29.5 -20t-36 -7t-36 7t-29.5 20t-19.5 29.5t-7 36.5z" />
<glyph unicode="&#xf8;" horiz-adv-x="797" d="M-10 410q0 74 17 134.5t43 108t58 83t63 58.5t56.5 34.5t38.5 11.5l13 -35q-41 -30 -73 -84q-28 -46 -50.5 -122t-22.5 -189q0 -69 13 -134t38 -115t61.5 -80t82.5 -30q63 0 104.5 50.5t61.5 138.5q-52 11 -99 41t-83 74.5t-57.5 102.5t-21.5 126q0 55 14 97t37.5 70.5 t55 43.5t66.5 16l38 145l72 -20l-39 -141q33 -15 64 -45t55 -75t38.5 -104t14.5 -133q0 -35 -4 -69t-12 -66q48 14 87.5 45t65.5 82l11 21l41 -31l-11 -21q-34 -68 -90.5 -108.5t-122.5 -52.5q-18 -51 -46.5 -94.5t-65 -75.5t-82 -50t-98.5 -18q-16 0 -29.5 0.5t-26.5 3.5 l-43 -158l-71 19l43 162q-48 22 -86.5 60t-64.5 88t-40 110t-14 125zM299 592q0 -59 16.5 -108.5t44.5 -87t65 -62.5t79 -35q5 28 6.5 58.5t1.5 62.5q0 71 -11 128.5t-29 98t-42 62.5t-49 22q-34 0 -58 -36.5t-24 -102.5z" />
<glyph unicode="&#xf9;" d="M-8 287q0 84 6 168.5t14.5 154.5t16.5 117t12 57q4 9 16 16t27.5 11t32 6t28.5 2q16 0 25.5 -8t9.5 -27q0 -9 -3.5 -35.5t-8.5 -64.5t-10.5 -84t-10.5 -93.5t-8.5 -94t-3.5 -84.5q0 -109 23.5 -162t77.5 -53q46 0 93.5 67t82.5 195q5 54 9.5 115.5t8.5 117t7.5 99.5 t6.5 63q3 14 16 23.5t29.5 15t32 8t23.5 2.5q17 0 23.5 -7.5t6.5 -23.5q0 -14 -2.5 -53.5t-6 -92l-7.5 -112.5t-7.5 -115.5t-6 -100.5t-2.5 -68q0 -68 7.5 -107t33.5 -39q19 0 41.5 24.5t49 68.5t57.5 104.5t67 132.5l10 21l41 -31l-10 -21q-48 -95 -84.5 -169.5 t-69.5 -125.5t-67 -77.5t-76 -26.5q-39 0 -64.5 15t-40.5 43t-21.5 68t-6.5 91q-5 -8 -14.5 -27.5t-24 -43.5t-34 -50t-44.5 -47t-55.5 -35t-67.5 -14q-29 0 -60 12t-57.5 44t-43.5 87.5t-17 143.5zM123 1116l133 62l113 -256l-41 -31z" />
<glyph unicode="&#xfa;" d="M-8 287q0 84 6 168.5t14.5 154.5t16.5 117t12 57q4 9 16 16t27.5 11t32 6t28.5 2q16 0 25.5 -8t9.5 -27q0 -9 -3.5 -35.5t-8.5 -64.5t-10.5 -84t-10.5 -93.5t-8.5 -94t-3.5 -84.5q0 -109 23.5 -162t77.5 -53q46 0 93.5 67t82.5 195q5 54 9.5 115.5t8.5 117t7.5 99.5 t6.5 63q3 14 16 23.5t29.5 15t32 8t23.5 2.5q17 0 23.5 -7.5t6.5 -23.5q0 -14 -2.5 -53.5t-6 -92l-7.5 -112.5t-7.5 -115.5t-6 -100.5t-2.5 -68q0 -68 7.5 -107t33.5 -39q19 0 41.5 24.5t49 68.5t57.5 104.5t67 132.5l10 21l41 -31l-10 -21q-48 -95 -84.5 -169.5 t-69.5 -125.5t-67 -77.5t-76 -26.5q-39 0 -64.5 15t-40.5 43t-21.5 68t-6.5 91q-5 -8 -14.5 -27.5t-24 -43.5t-34 -50t-44.5 -47t-55.5 -35t-67.5 -14q-29 0 -60 12t-57.5 44t-43.5 87.5t-17 143.5zM236 971l193 200l104 -102l-270 -141z" />
<glyph unicode="&#xfb;" d="M-8 287q0 84 6 168.5t14.5 154.5t16.5 117t12 57q4 9 16 16t27.5 11t32 6t28.5 2q16 0 25.5 -8t9.5 -27q0 -9 -3.5 -35.5t-8.5 -64.5t-10.5 -84t-10.5 -93.5t-8.5 -94t-3.5 -84.5q0 -109 23.5 -162t77.5 -53q46 0 93.5 67t82.5 195q5 54 9.5 115.5t8.5 117t7.5 99.5 t6.5 63q3 14 16 23.5t29.5 15t32 8t23.5 2.5q17 0 23.5 -7.5t6.5 -23.5q0 -14 -2.5 -53.5t-6 -92l-7.5 -112.5t-7.5 -115.5t-6 -100.5t-2.5 -68q0 -68 7.5 -107t33.5 -39q19 0 41.5 24.5t49 68.5t57.5 104.5t67 132.5l10 21l41 -31l-10 -21q-48 -95 -84.5 -169.5 t-69.5 -125.5t-67 -77.5t-76 -26.5q-39 0 -64.5 15t-40.5 43t-21.5 68t-6.5 91q-5 -8 -14.5 -27.5t-24 -43.5t-34 -50t-44.5 -47t-55.5 -35t-67.5 -14q-29 0 -60 12t-57.5 44t-43.5 87.5t-17 143.5zM55 983l266 195l266 -195l-30 -41l-236 123l-235 -123z" />
<glyph unicode="&#xfc;" d="M-8 287q0 84 6 168.5t14.5 154.5t16.5 117t12 57q4 9 16 16t27.5 11t32 6t28.5 2q16 0 25.5 -8t9.5 -27q0 -9 -3.5 -35.5t-8.5 -64.5t-10.5 -84t-10.5 -93.5t-8.5 -94t-3.5 -84.5q0 -109 23.5 -162t77.5 -53q46 0 93.5 67t82.5 195q5 54 9.5 115.5t8.5 117t7.5 99.5 t6.5 63q3 14 16 23.5t29.5 15t32 8t23.5 2.5q17 0 23.5 -7.5t6.5 -23.5q0 -14 -2.5 -53.5t-6 -92l-7.5 -112.5t-7.5 -115.5t-6 -100.5t-2.5 -68q0 -68 7.5 -107t33.5 -39q19 0 41.5 24.5t49 68.5t57.5 104.5t67 132.5l10 21l41 -31l-10 -21q-48 -95 -84.5 -169.5 t-69.5 -125.5t-67 -77.5t-76 -26.5q-39 0 -64.5 15t-40.5 43t-21.5 68t-6.5 91q-5 -8 -14.5 -27.5t-24 -43.5t-34 -50t-44.5 -47t-55.5 -35t-67.5 -14q-29 0 -60 12t-57.5 44t-43.5 87.5t-17 143.5zM96 1065q0 34 24 58t58 24q35 0 58.5 -24t23.5 -58q0 -35 -23.5 -58.5 t-58.5 -23.5q-34 0 -58 23.5t-24 58.5zM362 1065q0 34 24 58t58 24q35 0 58.5 -24t23.5 -58q0 -35 -23.5 -58.5t-58.5 -23.5q-34 0 -58 23.5t-24 58.5z" />
<glyph unicode="&#xfd;" horiz-adv-x="795" d="M-20 246q0 84 10 171t23.5 162t27.5 131.5t22 80.5q4 10 19 16t32 8.5t32 3t20 0.5q15 0 19.5 -7.5t4.5 -23.5q0 -8 -5 -35.5t-12.5 -68.5t-16 -93t-16 -107t-12.5 -111.5t-5 -106.5q0 -87 29 -130.5t67 -43.5q66 0 117 97t106 284v291q0 17 15.5 27.5t35.5 16.5t39 8.5 t27 2.5q31 0 31 -31q0 -11 -1.5 -36.5t-3.5 -60t-3.5 -76t-1.5 -83.5v-407q18 23 45.5 61t57 81t57 86t44.5 77l11 21l41 -31l-11 -21q-21 -42 -50 -87t-61.5 -90.5t-67 -90t-66.5 -84.5v-221q0 -92 -16.5 -156.5t-45.5 -105t-68 -58.5t-85 -18q-29 0 -53.5 9t-42.5 26.5 t-28 42t-10 55.5q0 45 16.5 90t46 93t68.5 98.5t84 105.5v303q-25 -68 -54 -125.5t-63 -98.5t-73 -64t-84 -23q-32 0 -65.5 10.5t-62 38.5t-46.5 75.5t-18 121.5zM248 971l193 200l104 -102l-270 -141zM289 -373q0 -31 17 -54.5t48 -23.5q16 0 32.5 6.5t29.5 29.5t21.5 68 t8.5 122v151q-34 -42 -62.5 -81.5t-49.5 -77t-33 -72.5t-12 -68z" />
<glyph unicode="&#xfe;" horiz-adv-x="772" d="M-14 -481q0 7 2 25t4 54.5t4 96t2 151.5v1325q0 10 8.5 20.5t22.5 18.5t31 13.5t34 5.5t27 -9t10 -32q0 -19 -3 -72.5t-3 -124.5v-360q17 37 41 71t55 60t69 41.5t83 15.5q60 0 105.5 -28.5t76.5 -76t47 -110t16 -129.5q0 -103 -20 -185.5t-55 -144.5q54 41 109.5 109 t109.5 176l10 21l41 -31l-10 -21q-46 -92 -101 -166t-117 -125.5t-129 -79.5t-137 -28q-61 0 -113.5 27t-80.5 67v-473q0 -38 -4 -63.5t-14.5 -41t-29.5 -22t-50 -6.5q-23 0 -32 7.5t-9 23.5zM127 305q0 -54 14.5 -98t38.5 -75t56.5 -47.5t68.5 -16.5q85 0 128.5 88 t43.5 276q0 64 -9 119t-28.5 95t-49 62.5t-71.5 22.5t-77.5 -29t-61 -74.5t-39.5 -100.5t-14 -107v-115z" />
<glyph unicode="&#xff;" horiz-adv-x="795" d="M-20 246q0 84 10 171t23.5 162t27.5 131.5t22 80.5q4 10 19 16t32 8.5t32 3t20 0.5q15 0 19.5 -7.5t4.5 -23.5q0 -8 -5 -35.5t-12.5 -68.5t-16 -93t-16 -107t-12.5 -111.5t-5 -106.5q0 -87 29 -130.5t67 -43.5q66 0 117 97t106 284v291q0 17 15.5 27.5t35.5 16.5t39 8.5 t27 2.5q31 0 31 -31q0 -11 -1.5 -36.5t-3.5 -60t-3.5 -76t-1.5 -83.5v-407q18 23 45.5 61t57 81t57 86t44.5 77l11 21l41 -31l-11 -21q-21 -42 -50 -87t-61.5 -90.5t-67 -90t-66.5 -84.5v-221q0 -92 -16.5 -156.5t-45.5 -105t-68 -58.5t-85 -18q-29 0 -53.5 9t-42.5 26.5 t-28 42t-10 55.5q0 45 16.5 90t46 93t68.5 98.5t84 105.5v303q-25 -68 -54 -125.5t-63 -98.5t-73 -64t-84 -23q-32 0 -65.5 10.5t-62 38.5t-46.5 75.5t-18 121.5zM117 1065q0 34 24 58t58 24q35 0 58.5 -24t23.5 -58q0 -35 -23.5 -58.5t-58.5 -23.5q-34 0 -58 23.5t-24 58.5 zM289 -373q0 -31 17 -54.5t48 -23.5q16 0 32.5 6.5t29.5 29.5t21.5 68t8.5 122v151q-34 -42 -62.5 -81.5t-49.5 -77t-33 -72.5t-12 -68zM383 1065q0 34 24 58t58 24q35 0 58.5 -24t23.5 -58q0 -35 -23.5 -58.5t-58.5 -23.5q-34 0 -58 23.5t-24 58.5z" />
<glyph unicode="&#x152;" horiz-adv-x="2068" d="M-11 788q0 131 24 242t65 203.5t95 165.5t114.5 128t123 91t119.5 55l22 -45q-81 -38 -147.5 -114.5t-114 -180.5t-74 -230.5t-26.5 -264.5q0 -205 34.5 -347.5t91.5 -231t129.5 -128t147.5 -39.5q74 0 140 27.5t120 81.5q-34 55 -53.5 125t-19.5 155q0 87 17.5 162.5 t50.5 139.5t80 115.5t105 90.5q-9 71 -26 129.5t-37 106.5q-20 -2 -40 -2h-40q-81 0 -142 13.5t-102.5 37.5t-62.5 57t-21 72q0 34 13 61.5t35.5 47.5t52.5 31t65 11q38 0 79 -16.5t81 -49.5t76.5 -84t66.5 -120l84 12q-6 26 -8 51.5t-2 51.5q0 59 16.5 110.5t48 89.5t78 60 t107.5 22q42 0 74 -12t53.5 -32.5t32 -49t10.5 -61.5q0 -39 -21 -76t-60.5 -71t-95.5 -62t-126 -49q11 -47 39 -93t76 -77q26 3 52 5.5t54 2.5q60 0 86.5 -17.5t26.5 -37.5q0 -19 -20 -33t-52 -14q-51 0 -94 8.5t-78 25.5q-63 -15 -112.5 -43.5t-88.5 -68.5q2 -25 3 -52 t1 -55q0 -168 -29.5 -298.5t-80.5 -227.5q27 -65 67 -112.5t89 -79t104.5 -47t112.5 -15.5q81 0 158.5 32t135.5 95q-66 5 -125.5 29.5t-105 66.5t-72 100t-26.5 130q0 71 22.5 125.5t59 91t83.5 55t95 18.5t93 -18t80 -54t56 -90.5t21 -127.5q0 -79 -16 -145t-44 -120 q35 5 70.5 19.5t69.5 41.5t65.5 67t58.5 96l11 20l41 -31l-11 -20q-32 -65 -71.5 -111t-83.5 -76t-92 -46.5t-97 -20.5q-38 -52 -87 -90.5t-105.5 -63.5t-118.5 -37t-125 -12q-60 0 -119 11t-113.5 33.5t-102.5 56.5t-87 79q-74 -74 -162 -108.5t-182 -34.5 q-124 0 -227.5 51t-178 151t-116 247t-41.5 339zM665 1401q0 -20 11 -41.5t37.5 -39.5t72 -30t114.5 -12h43q-27 48 -56.5 83.5t-58.5 58t-55.5 33.5t-46.5 11q-34 0 -47.5 -20t-13.5 -43zM964 522q0 -35 2.5 -67.5t7.5 -61.5q32 85 51 190.5t19 235.5v19 q-44 -73 -62 -155.5t-18 -160.5zM1052 1233q15 -45 27.5 -95.5t21.5 -109.5q34 17 69.5 30.5t73.5 22.5q-40 32 -67.5 75t-44.5 89q-20 -3 -39 -6.5t-41 -5.5zM1214 1321q60 18 107.5 41.5t81 51t51.5 57.5t18 59q0 16 -6 31t-17 27t-26 19t-33 7q-30 0 -61.5 -20t-57 -57 t-41.5 -89.5t-16 -116.5v-10zM1464 512q0 -51 20.5 -98.5t55 -86.5t81 -65.5t99.5 -34.5q32 53 51.5 118.5t19.5 146.5q0 57 -14 98.5t-36.5 68.5t-51.5 40.5t-60 13.5q-30 0 -60 -13.5t-53 -39t-37.5 -63t-14.5 -85.5z" />
<glyph unicode="&#x153;" horiz-adv-x="1178" d="M-10 410q0 74 17 134.5t43 108t58 83t63 58.5t56.5 34.5t38.5 11.5l13 -35q-41 -30 -73 -84q-28 -46 -50.5 -122t-22.5 -189q0 -69 11.5 -134t34.5 -115t57.5 -80t80.5 -30q42 0 76 22.5t58.5 64t39.5 100.5t19 131q-57 6 -107.5 28.5t-88 56.5t-59.5 78t-22 93 q0 34 11 64.5t31.5 53.5t48.5 36.5t63 13.5q33 0 63.5 -13t56.5 -34t46.5 -47.5t34.5 -53.5q28 40 62 72.5t72 55t78 34.5t79 12q38 0 66.5 -10t47 -27.5t28 -41.5t9.5 -52q0 -44 -26 -92.5t-74 -92t-116 -77.5t-152 -49q1 -56 14.5 -101.5t37.5 -77.5t57.5 -49.5 t72.5 -17.5q37 0 78 17.5t82 54t82.5 93t80.5 134.5l11 21l41 -31l-11 -21q-94 -188 -195.5 -282t-201.5 -94q-74 0 -135 38t-103 101q-45 -72 -111 -117t-151 -45q-77 0 -136.5 32.5t-100.5 88t-62.5 130t-21.5 159.5zM299 625q0 -39 16.5 -73t45 -60.5t67 -44t82.5 -23.5 q0 17 -2 46t-7.5 62t-14.5 67t-23.5 61.5t-34.5 45t-47 17.5q-34 0 -58 -25t-24 -73zM664 432q51 12 97.5 33.5t82 53.5t56 74t20.5 93q0 40 -18 59t-46 19q-27 0 -58.5 -21t-59.5 -62.5t-48.5 -103.5t-25.5 -145z" />
<glyph unicode="&#x178;" horiz-adv-x="1479" d="M-190 901q0 90 30.5 183t82.5 179.5t122 162t148.5 132t161.5 89t162 32.5q48 0 87.5 -15.5t68 -46t44 -76.5t15.5 -107q0 -74 -21.5 -167.5t-53 -197.5t-69 -214t-69 -217t-53 -207.5t-21.5 -184.5q0 -82 21.5 -131t52.5 -74.5t66.5 -33t64.5 -7.5q67 0 128 33.5 t116.5 93.5t105 141.5t92.5 177.5q4 158 9.5 311t14.5 290t24 253t40 200t60.5 131.5t85.5 47.5q30 0 55.5 -32t25.5 -101q0 -64 -9.5 -158t-29 -208t-49 -241t-69.5 -257v-55q0 -136 -2.5 -277.5t-10 -283t-20.5 -279.5t-35 -268l-153 -21q29 183 41 396.5t20 443.5 q-44 -87 -94 -158.5t-106 -123t-119 -79.5t-132 -28q-65 0 -126 21t-108 67t-75 117.5t-28 173.5q0 110 22.5 218t57 211.5t74 201.5t74 189t57 173t22.5 154q0 43 -9 72.5t-25.5 47.5t-39 25.5t-49.5 7.5q-74 0 -144.5 -34.5t-133 -92.5t-115 -133.5t-90.5 -157.5 t-59 -164.5t-21 -154.5q0 -78 29 -116t83 -38q39 0 79 23.5t77.5 65.5t71 100.5t59.5 128.5l41 -21q-13 -31 -31.5 -68.5t-43 -76.5t-54.5 -75.5t-65.5 -65t-76.5 -45.5t-87 -17q-42 0 -78 13.5t-62 40.5t-40.5 67t-14.5 94zM734 1925q0 34 24 58t58 24q35 0 58.5 -24 t23.5 -58q0 -35 -23.5 -58.5t-58.5 -23.5q-34 0 -58 23.5t-24 58.5zM1000 1925q0 34 24 58t58 24q35 0 58.5 -24t23.5 -58q0 -35 -23.5 -58.5t-58.5 -23.5q-34 0 -58 23.5t-24 58.5zM1248 862q23 94 41 185.5t30 172.5t18.5 148.5t6.5 114.5q0 49 -7.5 76.5t-21.5 27.5 q-22 0 -35.5 -36.5t-20.5 -103t-9 -159.5t-2 -205v-221z" />
<glyph unicode="&#x2c6;" horiz-adv-x="532" d="M0 983l266 195l266 -195l-30 -41l-236 123l-235 -123z" />
<glyph unicode="&#x2dc;" horiz-adv-x="512" d="M0 983q5 46 22 82q14 31 42.5 56.5t78.5 25.5q31 0 63 -9.5t65 -21.5t65 -21.5t63 -9.5q23 0 37 9.5t22 21.5q9 13 13 31h41q-5 -46 -22 -82q-14 -31 -43 -56.5t-78 -25.5q-31 0 -63.5 9.5t-65.5 21t-65 21t-62 9.5q-23 0 -37 -10t-22 -21q-9 -13 -13 -30h-41z" />
<glyph unicode="&#x2000;" horiz-adv-x="1054" />
<glyph unicode="&#x2001;" horiz-adv-x="2109" />
<glyph unicode="&#x2002;" horiz-adv-x="1054" />
<glyph unicode="&#x2003;" horiz-adv-x="2109" />
<glyph unicode="&#x2004;" horiz-adv-x="703" />
<glyph unicode="&#x2005;" horiz-adv-x="527" />
<glyph unicode="&#x2006;" horiz-adv-x="351" />
<glyph unicode="&#x2007;" horiz-adv-x="351" />
<glyph unicode="&#x2008;" horiz-adv-x="263" />
<glyph unicode="&#x2009;" horiz-adv-x="421" />
<glyph unicode="&#x200a;" horiz-adv-x="117" />
<glyph unicode="&#x2010;" horiz-adv-x="737" d="M123 532v82h491v-82h-491z" />
<glyph unicode="&#x2011;" horiz-adv-x="737" d="M123 532v82h491v-82h-491z" />
<glyph unicode="&#x2012;" horiz-adv-x="737" d="M123 532v82h491v-82h-491z" />
<glyph unicode="&#x2013;" horiz-adv-x="799" d="M123 532v82h553v-82h-553z" />
<glyph unicode="&#x2014;" horiz-adv-x="1167" d="M123 532v82h921v-82h-921z" />
<glyph unicode="&#x2018;" horiz-adv-x="358" d="M72 1178q0 54 24.5 98t53.5 76q34 37 79 67l29 -26q-9 -9 -22 -23t-24.5 -30.5t-19.5 -34t-8 -35.5q0 -15 14.5 -25t31.5 -21.5t31.5 -28.5t14.5 -48q0 -19 -7 -36t-19.5 -29.5t-29.5 -19.5t-36 -7q-23 0 -43.5 9t-35.5 25.5t-24 39t-9 49.5z" />
<glyph unicode="&#x2019;" horiz-adv-x="0" d="M-20 1313q0 19 8 36t21.5 30t31 20.5t35.5 7.5q23 0 42 -9.5t33 -26.5t21.5 -40t7.5 -49q0 -52 -23 -96t-50 -76q-32 -38 -72 -70l-29 27q9 6 21.5 19.5t23 30.5t18 36t7.5 37q0 12 -15 20.5t-33 20.5t-33 30.5t-15 51.5z" />
<glyph unicode="&#x201a;" horiz-adv-x="358" d="M82 123q0 19 7 36t19.5 29.5t29.5 19.5t36 7q47 0 74.5 -35t27.5 -88q0 -52 -23 -96t-50 -76q-32 -38 -72 -70l-29 27q9 6 21.5 19.5t23 30.5t18 36t7.5 37q0 12 -14 20.5t-31 20.5t-31 30.5t-14 51.5z" />
<glyph unicode="&#x201c;" horiz-adv-x="604" d="M82 1155q0 38 14 71t35.5 60t46 47.5t45.5 35t34.5 21.5t12.5 7l23 -31q-9 -4 -24 -15.5t-29.5 -27.5t-25.5 -34.5t-11 -35.5q0 -10 12 -19.5t26 -22t26 -30t12 -42.5q0 -22 -8.5 -40t-22 -30.5t-31.5 -19.5t-37 -7q-45 0 -71.5 33.5t-26.5 79.5zM322 1165 q0 52 22.5 96.5t49.5 76.5q32 38 73 69l29 -27q-9 -6 -21.5 -19t-23 -30.5t-18 -36.5t-7.5 -37q0 -12 15 -20t33 -20t33 -30.5t15 -51.5q0 -20 -8 -37t-21.5 -30t-31 -20.5t-35.5 -7.5q-23 0 -42 10t-33 27t-21.5 39.5t-7.5 48.5z" />
<glyph unicode="&#x201d;" horiz-adv-x="604" d="M82 1313q0 19 8 36t21.5 30t31 20.5t35.5 7.5q23 0 42.5 -9.5t33.5 -26.5t21.5 -40t7.5 -49q0 -52 -23 -96t-50 -76q-33 -38 -73 -70l-28 27q9 6 21 19.5t22.5 30.5t18 36t7.5 37q0 12 -15 20.5t-33 20.5t-33 30.5t-15 51.5zM311 1081q9 4 23.5 16t29 28t25 34t10.5 35 q0 10 -11.5 19.5t-25 22.5t-25 30t-11.5 43q0 43 28 68.5t66 25.5q45 0 73.5 -32t28.5 -79q0 -38 -14 -71t-35.5 -59.5t-46 -47t-45.5 -35t-34.5 -21.5t-12.5 -7z" />
<glyph unicode="&#x201e;" horiz-adv-x="604" d="M82 123q0 19 8 36t21.5 30t31 20.5t35.5 7.5q23 0 42.5 -9.5t33.5 -26.5t21.5 -40t7.5 -49q0 -52 -23 -96t-50 -76q-33 -38 -73 -70l-28 27q9 6 21 19.5t22.5 30.5t18 36t7.5 37q0 12 -15 20.5t-33 20.5t-33 30.5t-15 51.5zM311 -109q9 4 24 16t29.5 28t25.5 34t11 35 q0 10 -11.5 19.5t-26 22.5t-26 30t-11.5 43q0 21 8 39t21.5 30.5t31.5 19.5t37 7q45 0 71.5 -33t26.5 -80q0 -38 -14 -71t-35.5 -59.5t-46 -47t-45.5 -35t-34.5 -21.5t-12.5 -7z" />
<glyph unicode="&#x2022;" horiz-adv-x="573" d="M123 481q0 34 13 64t35.5 52.5t52 36t63.5 13.5t63.5 -13.5t52 -36t35.5 -52.5t13 -64q0 -33 -13 -62.5t-35.5 -51.5t-52 -35t-63.5 -13t-63.5 13t-52 35t-35.5 51.5t-13 62.5z" />
<glyph unicode="&#x2026;" horiz-adv-x="1167" d="M123 92q0 19 7 36t19.5 29.5t29.5 19.5t36 7t36 -7t29.5 -19.5t19.5 -29.5t7 -36t-7 -36t-19.5 -29.5t-29.5 -19.5t-36 -7t-36 7t-29.5 19.5t-19.5 29.5t-7 36zM492 92q0 19 7 36t19.5 29.5t29 19.5t36.5 7q19 0 36 -7t29.5 -19.5t19.5 -29.5t7 -36t-7 -36t-19.5 -29.5 t-29.5 -19.5t-36 -7q-20 0 -36.5 7t-29 19.5t-19.5 29.5t-7 36zM860 92q0 19 7 36t19.5 29.5t29.5 19.5t36 7t36 -7t29.5 -19.5t19.5 -29.5t7 -36t-7 -36t-19.5 -29.5t-29.5 -19.5t-36 -7t-36 7t-29.5 19.5t-19.5 29.5t-7 36z" />
<glyph unicode="&#x202f;" horiz-adv-x="421" />
<glyph unicode="&#x2039;" horiz-adv-x="799" d="M123 461l514 461l41 -52l-389 -409l389 -410l-41 -51z" />
<glyph unicode="&#x203a;" horiz-adv-x="799" d="M123 51l389 410l-389 409l41 52l514 -461l-514 -461z" />
<glyph unicode="&#x205f;" horiz-adv-x="527" />
<glyph unicode="&#x20ac;" horiz-adv-x="1178" d="M119 743l12 62h125v86h-113l11 61h106q11 119 47.5 219t94 172t133 112t165.5 40q110 0 194 -58.5t138 -160.5l-45 -33q-18 41 -45 77.5t-60.5 64t-72.5 43.5t-82 16q-75 0 -129.5 -39.5t-92 -106.5t-58 -156.5t-27.5 -189.5h481l-10 -61h-473v-86h459l-11 -62h-444 q7 -98 28 -185.5t57.5 -152.5t89.5 -103t124 -38q51 0 94 17t79 48t64.5 74t49.5 95l49 -17q-53 -127 -143 -198.5t-214 -71.5q-89 0 -164 39t-132.5 109.5t-94.5 168.5t-49 215h-141z" />
<glyph unicode="&#x2122;" horiz-adv-x="1372" d="M123 1358q0 29 15 48t40.5 29.5t60 14.5t72.5 4h275v-467q0 -48 -11.5 -80t-32 -51.5t-48 -28t-58.5 -8.5q-29 0 -56.5 10t-49 30.5t-34.5 51t-13 72.5h39q0 -26 7.5 -46.5t20.5 -34.5t29 -21t33 -7q32 0 46.5 18.5t14.5 63.5v137v118t-0.5 89.5t-1.5 51.5h-125 q-69 0 -107 -14t-38 -42q0 -19 14.5 -34.5t31.5 -26.5q20 -13 46 -25l-12 -36q-45 19 -79 46q-30 23 -54.5 57t-24.5 81zM670 834v620h102l135 -426l109 426h108q-7 -76 -12 -151q-5 -64 -8.5 -135t-3.5 -126q0 -69 11.5 -107t39.5 -38q18 0 34 14.5t27 31.5q13 20 25 46 l37 -12q-19 -45 -46 -79q-23 -30 -57.5 -54.5t-80.5 -24.5q-29 0 -48 15t-30 41t-15 60t-4 73q0 45 3.5 91.5t7.5 88.5l-95 -354h-73l-115 354v-354h-51z" />
<glyph unicode="&#x25fc;" horiz-adv-x="820" d="M0 0v820h820v-820h-820z" />
<glyph unicode="&#xfb01;" horiz-adv-x="881" d="M-2 707q0 192 21 339t56.5 247t81.5 151t97 51q19 0 36 -6.5t29.5 -20.5t19.5 -38t7 -58q0 -86 -20 -189.5t-50.5 -209.5t-66.5 -207.5t-68 -183.5v-236q14 -11 48 -19t71 -8q33 0 62 8t53 20.5t42 28t29 30.5v51.5t0.5 71t2 79t4 76t6 61t8.5 33.5q7 13 19 21t24.5 12.5 t24 6t18.5 1.5q37 0 52.5 -34.5t15.5 -88.5t-5.5 -101t-12.5 -84t-14 -63t-11 -36v-113q0 -63 6 -99.5t15 -54.5t20.5 -23t23.5 -5q16 0 36 14t47 49.5t62 96t82 153.5l11 21l41 -31l-11 -21q-38 -74 -75.5 -146t-76 -128t-77.5 -90.5t-78 -34.5t-69 13.5t-50 49t-30.5 97.5 t-10.5 159q-51 -34 -108.5 -53.5t-116.5 -19.5q-20 0 -39.5 2t-38.5 8v-758l-102 -10q-12 169 -21 365q-4 84 -7.5 182t-6.5 206.5t-4.5 226t-1.5 239.5zM141 711q25 71 47 148t39 155.5t27 156.5t10 150q0 46 -9 74t-34 28q-22 0 -37.5 -45t-25 -121.5t-13.5 -179 t-4 -217.5v-149zM459 1024q0 34 24 58t58 24q35 0 58.5 -24t23.5 -58q0 -35 -23.5 -58.5t-58.5 -23.5q-34 0 -58 23.5t-24 58.5z" />
<glyph unicode="&#xfb02;" horiz-adv-x="864" d="M-2 707q0 192 21 339t56.5 247t81.5 151t97 51q19 0 36 -6.5t29.5 -20.5t19.5 -38t7 -58q0 -86 -20 -189.5t-50.5 -209.5t-66.5 -207.5t-68 -183.5v-224q9 -12 21.5 -21t27 -14.5t29.5 -8.5t27 -3q52 0 96.5 28.5t79.5 100.5q-2 35 -2 73.5v80.5q0 238 20.5 408.5t55 280 t79.5 161t95 51.5q31 0 51 -24.5t20 -88.5q0 -50 -8 -114t-21 -137t-31 -151.5t-38 -156t-41 -152t-41 -139.5q6 -123 14 -201.5t18 -123.5t24 -62.5t32 -17.5t41.5 23.5t50.5 64.5t57 96t62 119l10 21l41 -31l-10 -21q-53 -106 -94.5 -181.5t-77.5 -124t-68.5 -71 t-66.5 -22.5q-35 0 -63.5 18t-49.5 59t-34.5 107.5t-20.5 163.5q-37 -52 -88.5 -81t-108.5 -29q-21 0 -43.5 4.5t-44.5 13.5v-758l-102 -10q-12 169 -21 365q-4 84 -7.5 182t-6.5 206.5t-4.5 226t-1.5 239.5zM141 711q25 71 47 148t39 155.5t27 156.5t10 150q0 46 -9 74 t-34 28q-22 0 -37.5 -45t-25 -121.5t-13.5 -179t-4 -217.5v-149zM561 698q24 88 45 180.5t36.5 179.5t24.5 164.5t9 135.5q0 21 -5 33t-16 12t-22 -31t-21.5 -84t-19 -123t-15.5 -148.5t-11 -160.5t-5 -158z" />
</font>
</defs>
</svg>
